  0
SECTION
  2
HEADER
  9
$ACADVER
  1
AC1009
  9
$DWGCODEPAGE
  3
dos932
  9
$INSBASE
 10
0.0
 20
0.0
 30
0.0
  9
$EXTMIN
 10
-105.0
 20
-148.5
 30
0.0
  9
$EXTMAX
 10
105.0
 20
148.5
 30
0.0
  9
$LIMMIN
 10
-105.0
 20
-148.5
  9
$LIMMAX
 10
105.0
 20
148.5
  9
$ORTHOMODE
 70
     0
  9
$REGENMODE
 70
     1
  9
$FILLMODE
 70
     1
  9
$QTEXTMODE
 70
     0
  9
$MIRRTEXT
 70
     1
  9
$DRAGMODE
 70
     2
  9
$LTSCALE
 40
1.0
  9
$OSMODE
 70
     0
  9
$ATTMODE
 70
     1
  9
$TEXTSIZE
 40
2.5
  9
$TRACEWID
 40
0.05
  9
$TEXTSTYLE
  7
MX_NOTE_STANDARD
  9
$CLAYER
  8
LY_1
  9
$CELTYPE
  6
CONTINUOUS
  9
$CECOLOR
 62
   256
  9
$DIMSCALE
 40
1.0
  9
$DIMASZ
 40
2.5
  9
$DIMEXO
 40
1.5
  9
$DIMDLI
 40
3.75
  9
$DIMRND
 40
0.0
  9
$DIMDLE
 40
0.0
  9
$DIMEXE
 40
1.5
  9
$DIMTP
 40
0.0
  9
$DIMTM
 40
0.0
  9
$DIMTXT
 40
2.5
  9
$DIMCEN
 40
2.5
  9
$DIMTSZ
 40
0.0
  9
$DIMTOL
 70
     0
  9
$DIMLIM
 70
     0
  9
$DIMTIH
 70
     0
  9
$DIMTOH
 70
     0
  9
$DIMSE1
 70
     0
  9
$DIMSE2
 70
     0
  9
$DIMTAD
 70
     1
  9
$DIMZIN
 70
     8
  9
$DIMBLK
  1

  9
$DIMASO
 70
     1
  9
$DIMSHO
 70
     1
  9
$DIMPOST
  1

  9
$DIMAPOST
  1

  9
$DIMALT
 70
     0
  9
$DIMALTD
 70
     4
  9
$DIMALTF
 40
0.03937
  9
$DIMLFAC
 40
1.0
  9
$DIMTOFL
 70
     1
  9
$DIMTVP
 40
0.0
  9
$DIMTIX
 70
     0
  9
$DIMSOXD
 70
     0
  9
$DIMSAH
 70
     1
  9
$DIMBLK1
  1
_OPEN30
  9
$DIMBLK2
  1
_OPEN30
  9
$DIMSTYLE
  2
MXDIMSTYLE
  9
$DIMCLRD
 70
     0
  9
$DIMCLRE
 70
     0
  9
$DIMCLRT
 70
     0
  9
$DIMTFAC
 40
1.0
  9
$DIMGAP
 40
0.5
  9
$LUNITS
 70
     2
  9
$LUPREC
 70
     4
  9
$AXISMODE
 70
     0
  9
$AXISUNIT
 10
0.0
 20
0.0
  9
$SKETCHINC
 40
0.1
  9
$FILLETRAD
 40
0.0
  9
$AUNITS
 70
     0
  9
$AUPREC
 70
     0
  9
$MENU
  1
acad
  9
$ELEVATION
 40
0.0
  9
$PELEVATION
 40
0.0
  9
$THICKNESS
 40
0.0
  9
$LIMCHECK
 70
     0
  9
$BLIPMODE
 70
     1
  9
$CHAMFERA
 40
0.0
  9
$CHAMFERB
 40
0.0
  9
$SKPOLY
 70
     0
  9
$TDCREATE
 40
2457317.475173611
  9
$TDUPDATE
 40
2457317.475173611
  9
$TDINDWG
 40
0.0000000000
  9
$TDUSRTIMER
 40
0.0000000000
  9
$USRTIMER
 70
     1
  9
$ANGBASE
 50
0.0
  9
$ANGDIR
 70
     0
  9
$PDMODE
 70
     0
  9
$PDSIZE
 40
0.0
  9
$PLINEWID
 40
0.0
  9
$COORDS
 70
     1
  9
$SPLFRAME
 70
     0
  9
$SPLINETYPE
 70
     6
  9
$SPLINESEGS
 70
     8
  9
$ATTDIA
 70
     0
  9
$ATTREQ
 70
     1
  9
$HANDLING
 70
     1
  9
$HANDSEED
  5
104
  9
$SURFTAB1
 70
     6
  9
$SURFTAB2
 70
     6
  9
$SURFTYPE
 70
     6
  9
$SURFU
 70
     6
  9
$SURFV
 70
     6
  9
$UCSNAME
  2

  9
$UCSORG
 10
0.0
 20
0.0
 30
0.0
  9
$UCSXDIR
 10
1.0
 20
0.0
 30
0.0
  9
$UCSYDIR
 10
0.0
 20
1.0
 30
0.0
  9
$PUCSNAME
  2

  9
$PUCSORG
 10
0.0
 20
0.0
 30
0.0
  9
$PUCSXDIR
 10
1.0
 20
0.0
 30
0.0
  9
$PUCSYDIR
 10
0.0
 20
1.0
 30
0.0
  9
$USERI1
 70
     0
  9
$USERI2
 70
     0
  9
$USERI3
 70
     0
  9
$USERI4
 70
     0
  9
$USERI5
 70
     0
  9
$USERR1
 40
0.0
  9
$USERR2
 40
0.0
  9
$USERR3
 40
0.0
  9
$USERR4
 40
0.0
  9
$USERR5
 40
0.0
  9
$WORLDVIEW
 70
     1
  9
$SHADEDGE
 70
     3
  9
$SHADEDIF
 70
    70
  9
$TILEMODE
 70
     1
  9
$MAXACTVP
 70
    16
  9
$PINSBASE
 10
0.0
 20
0.0
 30
0.0
  9
$PLIMCHECK
 70
     0
  9
$PEXTMIN
 10
1.000000E+20
 20
1.000000E+20
 30
1.000000E+20
  9
$PEXTMAX
 10
-1.000000E+20
 20
-1.000000E+20
 30
-1.000000E+20
  9
$PLIMMIN
 10
0.0
 20
0.0
  9
$PLIMMAX
 10
12.0
 20
9.0
  9
$UNITMODE
 70
     0
  9
$VISRETAIN
 70
     0
  9
$PLINEGEN
 70
     1
  9
$PSLTSCALE
 70
     0
  9
$TREEDEPTH
 70
  3020
  0
ENDSEC
  0
SECTION
  2
TABLES
  0
TABLE
  2
VPORT
 70
     1
  0
VPORT
  2
*ACTIVE
 70
     0
 10
0.0
 20
0.0
 11
1.0
 21
1.0
 12
0.0
 22
0.0
 13
0.0
 23
0.0
 14
1.0
 24
1.0
 15
0.0
 25
0.0
 16
0.0
 26
0.0
 36
1.0
 17
0.0
 27
0.0
 37
0.0
 40
299.97
 41
1.732051
 42
50.0
 43
0.0
 44
0.0
 50
0.0
 51
0.0
 71
     0
 72
   100
 73
     1
 74
     1
 75
     0
 76
     0
 77
     0
 78
     0
  0
ENDTAB
  0
TABLE
  2
LTYPE
 70
     3
  0
LTYPE
  2
CONTINUOUS
 70
    64
  3
Solid line
 72
    65
 73
     0
 40
0.0
  0
LTYPE
  2
NON_PLOTING
 70
     0
  3
Solid line
 72
    65
 73
     0
 40
0.0
  0
LTYPE
  2
CENTER
 70
    64
  3
Center ____ _ ____ _ ____ _ ____ _ ____ _ ____
 72
    65
 73
     4
 40
50.8
 49
31.75
 49
-6.35
 49
6.35
 49
-6.35
  0
ENDTAB
  0
TABLE
  2
LAYER
 70
     3
  0
LAYER
  2
0
 70
     0
 62
     7
  6
CONTINUOUS
  0
LAYER
  2
LY_1
 70
     0
 62
   254
  6
CONTINUOUS
  0
LAYER
  2
DEFPOINTS
 70
     0
 62
     7
  6
CONTINUOUS
  0
ENDTAB
  0
TABLE
  2
STYLE
 70
     3
  0
STYLE
  2
MX_NOTE_STANDARD
 70
     0
 40
0.0
 41
1.0
 50
0.0
 71
     0
 42
2.5
  3
txt.shx
  4
extfont.shx
  0
STYLE
  2
MX_DIMTXSTY_2
 70
     0
 40
0.0
 41
1.5
 50
0.0
 71
     0
 42
2.5
  3
txt.shx
  4
extfont.shx
  0
STYLE
  2
MX_DIMTXSTY_3
 70
     0
 40
0.0
 41
0.85
 50
0.0
 71
     0
 42
2.5
  3
txt.shx
  4
extfont.shx
  0
ENDTAB
  0
TABLE
  2
VIEW
 70
     0
  0
ENDTAB
  0
TABLE
  2
UCS
 70
     0
  0
ENDTAB
  0
TABLE
  2
APPID
 70
     2
  0
APPID
  2
ACAD
 70
     0
  0
APPID
  2
CONTENTBLOCKDESCRIPTION
 70
     0
  0
ENDTAB
  0
TABLE
  2
DIMSTYLE
 70
     1
  0
DIMSTYLE
  2
MXDIMSTYLE
 70
     0
  3

  4

  5

  6
_OPEN30
  7
_OPEN30
 40
1.0
 41
2.5
 42
1.5
 43
3.75
 44
1.5
 45
0.0
 46
0.0
 47
0.0
 48
0.0
 71
     0
 72
     0
 73
     0
 74
     0
 75
     0
 76
     0
 77
     1
 78
     8
140
2.5
141
2.5
142
0.0
143
0.03937
144
1.0
145
0.0
146
1.0
147
0.5
170
     0
171
     4
172
     1
173
     1
174
     0
175
     0
176
     0
177
     0
178
     0
  0
ENDTAB
  0
ENDSEC
  0
SECTION
  2
BLOCKS
  0
BLOCK
  8
0
  6
BYBLOCK
 62
     0
  5
20
  2
_OPEN30
 70
     2
 10
0.0
 20
0.0
 30
0.0
  3
_OPEN30
  0
LINE
  8
0
  6
BYBLOCK
 62
     0
  5
21
 10
-1.0
 20
0.267949
 30
0.0
 11
0.0
 21
0.0
 31
0.0
  0
LINE
  8
0
  6
BYBLOCK
 62
     0
  5
22
 10
0.0
 20
0.0
 30
0.0
 11
-1.0
 21
-0.267949
 31
0.0
  0
LINE
  8
0
  6
BYBLOCK
 62
     0
  5
23
 10
0.0
 20
0.0
 30
0.0
 11
-1.0
 21
0.0
 31
0.0
  0
ENDBLK
  8
0
  6
BYBLOCK
 62
     0
  5
24
  0
BLOCK
  8
0
  6
BYBLOCK
 62
     0
  5
79
  2
$KAKUDAI-3
 70
     0
 10
0.0
 20
0.0
 30
0.0
  3
$KAKUDAI-3
  0
ARC
  8
0
  6
CONTINUOUS
 62
     0
  5
7A
 10
0.0
 20
0.0
 30
0.0
 40
4.14
 50
299.461315
 51
60.538685
  0
ARC
  8
0
  6
CONTINUOUS
 62
     0
  5
7B
 10
0.0
 20
0.0
 30
0.0
 40
4.14
 50
105.408581
 51
254.591422
  0
ARC
  8
0
  6
CONTINUOUS
 62
     0
  5
7C
 10
0.0
 20
0.0
 30
0.0
 40
5.0
 50
92.751257
 51
267.248746
  0
ARC
  8
0
  6
CONTINUOUS
 62
     0
  5
7D
 10
0.0
 20
0.0
 30
0.0
 40
5.0
 50
286.992764
 51
73.007236
  0
LINE
  8
0
  6
CONTINUOUS
 62
     0
  5
7E
 10
2.0362
 20
-3.604648
 30
0.0
 11
1.070337
 21
0.0
 31
0.0
  0
LINE
  8
0
  6
CONTINUOUS
 62
     0
  5
7F
 10
1.461255
 20
-4.781708
 30
0.0
 11
0.18
 21
0.0
 31
0.0
  0
LINE
  8
0
  6
CONTINUOUS
 62
     0
  5
80
 10
1.070337
 20
0.0
 30
0.0
 11
2.0362
 21
3.604648
 31
0.0
  0
LINE
  8
0
  6
CONTINUOUS
 62
     0
  5
81
 10
0.18
 20
0.0
 30
0.0
 11
1.461255
 21
4.781708
 31
0.0
  0
LINE
  8
0
  6
CONTINUOUS
 62
     0
  5
82
 10
-1.1
 20
3.99119
 30
0.0
 11
-1.1
 21
-3.99119
 31
0.0
  0
LINE
  8
0
  6
CONTINUOUS
 62
     0
  5
83
 10
-0.24
 20
4.994236
 30
0.0
 11
-0.24
 21
-4.994236
 31
0.0
  0
ENDBLK
  8
0
  6
BYBLOCK
 62
     0
  5
84
  0
BLOCK
  8
0
  6
BYBLOCK
 62
     0
  5
87
  2
$KAKUDAI-2
 70
     0
 10
0.0
 20
0.0
 30
0.0
  3
$KAKUDAI-2
  0
ARC
  8
0
  6
CONTINUOUS
 62
     0
  5
88
 10
29.31842
 20
1.863708
 30
0.0
 40
0.591628
 50
270.000025
 51
354.40127
  0
ARC
  8
0
  6
CONTINUOUS
 62
     0
  5
89
 10
29.318405
 20
2.573524
 30
0.0
 40
0.591628
 50
5.59873
 51
89.999982
  0
ARC
  8
0
  6
CONTINUOUS
 62
     0
  5
8A
 10
25.69725
 20
2.218666
 30
0.0
 40
4.230142
 50
354.401273
 51
5.598727
  0
ARC
  8
0
  6
CONTINUOUS
 62
     0
  5
8B
 10
29.621689
 20
1.479218
 30
0.0
 40
1.479071
 50
270.000025
 51
349.328068
  0
ARC
  8
0
  6
CONTINUOUS
 62
     0
  5
8C
 10
29.621689
 20
2.958115
 30
0.0
 40
1.479071
 50
10.671932
 51
89.999982
  0
ARC
  8
0
  6
CONTINUOUS
 62
     0
  5
8D
 10
25.69725
 20
2.218666
 30
0.0
 40
5.472562
 50
349.328068
 51
10.671932
  0
ARC
  8
0
  6
CONTINUOUS
 62
     0
  5
8E
 10
22.88707
 20
1.622192
 30
0.0
 40
0.591628
 50
276.999029
 51
0.0
  0
ARC
  8
0
  6
CONTINUOUS
 62
     0
  5
8F
 10
21.112137
 20
1.622177
 30
0.0
 40
0.591628
 50
179.999964
 51
263.000915
  0
ARC
  8
0
  6
CONTINUOUS
 62
     0
  5
90
 10
21.999603
 20
8.85083
 30
0.0
 40
7.874568
 50
263.000966
 51
276.999015
  0
ARC
  8
0
  6
CONTINUOUS
 62
     0
  5
91
 10
23.271584
 20
1.28949
 30
0.0
 40
1.479071
 50
279.549258
 51
0.0
  0
ARC
  8
0
  6
CONTINUOUS
 62
     0
  5
92
 10
20.727631
 20
1.28949
 30
0.0
 40
1.479071
 50
179.999964
 51
260.450713
  0
ARC
  8
0
  6
CONTINUOUS
 62
     0
  5
93
 10
21.999603
 20
8.85083
 30
0.0
 40
9.146571
 50
260.450737
 51
279.54923
  0
LINE
  8
0
  6
CONTINUOUS
 62
     0
  5
94
 10
39.999893
 20
4.437317
 30
0.0
 11
39.999893
 21
0.000015
 31
0.0
  0
LINE
  8
0
  6
CONTINUOUS
 62
     0
  5
95
 10
38.72789
 20
4.437317
 30
0.0
 11
38.72789
 21
0.000015
 31
0.0
  0
LINE
  8
0
  6
CONTINUOUS
 62
     0
  5
96
 10
12.752607
 20
-0.000183
 30
0.0
 11
10.238149
 21
4.437112
 31
0.0
  0
LINE
  8
0
  6
CONTINUOUS
 62
     0
  5
97
 10
11.290825
 20
0.0
 30
0.0
 11
12.752815
 21
0.0
 31
0.0
  0
LINE
  8
0
  6
CONTINUOUS
 62
     0
  5
98
 10
11.290678
 20
-0.000035
 30
0.0
 11
10.871566
 21
0.739584
 31
0.0
  0
LINE
  8
0
  6
CONTINUOUS
 62
     0
  5
99
 10
10.368869
 20
1.627127
 30
0.0
 11
9.328812
 21
3.462514
 31
0.0
  0
LINE
  8
0
  6
CONTINUOUS
 62
     0
  5
9A
 10
8.289557
 20
1.626387
 30
0.0
 11
9.329624
 21
3.46183
 31
0.0
  0
LINE
  8
0
  6
CONTINUOUS
 62
     0
  5
9B
 10
8.288605
 20
1.627098
 30
0.0
 11
10.368835
 21
1.627098
 31
0.0
  0
LINE
  8
0
  6
CONTINUOUS
 62
     0
  5
9C
 10
7.785843
 20
0.739464
 30
0.0
 11
10.871651
 21
0.739464
 31
0.0
  0
LINE
  8
0
  6
CONTINUOUS
 62
     0
  5
9D
 10
5.904288
 20
0.000176
 30
0.0
 11
8.41872
 21
4.437407
 31
0.0
  0
LINE
  8
0
  6
CONTINUOUS
 62
     0
  5
9E
 10
7.366972
 20
-0.000121
 30
0.0
 11
7.786036
 21
0.739421
 31
0.0
  0
LINE
  8
0
  6
CONTINUOUS
 62
     0
  5
9F
 10
5.904747
 20
0.0
 30
0.0
 11
7.366676
 21
0.0
 31
0.0
  0
LINE
  8
0
  6
CONTINUOUS
 62
     0
  5
A0
 10
8.419144
 20
4.437302
 30
0.0
 11
10.238426
 21
4.437302
 31
0.0
  0
LINE
  8
0
  6
CONTINUOUS
 62
     0
  5
A1
 10
26.821381
 20
3.16539
 30
0.0
 11
26.821381
 21
1.27224
 31
0.0
  0
LINE
  8
0
  6
CONTINUOUS
 62
     0
  5
A2
 10
25.549355
 20
4.437317
 30
0.0
 11
25.549355
 21
0.000015
 31
0.0
  0
LINE
  8
0
  6
CONTINUOUS
 62
     0
  5
A3
 10
26.821388
 20
3.1651
 30
0.0
 11
29.318481
 21
3.1651
 31
0.0
  0
LINE
  8
0
  6
CONTINUOUS
 62
     0
  5
A4
 10
26.821388
 20
1.271919
 30
0.0
 11
29.318481
 21
1.271919
 31
0.0
  0
LINE
  8
0
  6
CONTINUOUS
 62
     0
  5
A5
 10
38.727936
 20
0.000015
 30
0.0
 11
39.999947
 21
0.000015
 31
0.0
  0
LINE
  8
0
  6
CONTINUOUS
 62
     0
  5
A6
 10
38.727936
 20
4.437317
 30
0.0
 11
39.999947
 21
4.437317
 31
0.0
  0
LINE
  8
0
  6
CONTINUOUS
 62
     0
  5
A7
 10
23.478714
 20
4.437302
 30
0.0
 11
24.750725
 21
4.437302
 31
0.0
  0
LINE
  8
0
  6
CONTINUOUS
 62
     0
  5
A8
 10
25.549408
 20
4.437302
 30
0.0
 11
29.621742
 21
4.437302
 31
0.0
  0
LINE
  8
0
  6
CONTINUOUS
 62
     0
  5
A9
 10
24.750397
 20
4.437317
 30
0.0
 11
24.750397
 21
1.28949
 31
0.0
  0
LINE
  8
0
  6
CONTINUOUS
 62
     0
  5
AA
 10
23.478989
 20
4.437309
 30
0.0
 11
23.478989
 21
1.622185
 31
0.0
  0
LINE
  8
0
  6
CONTINUOUS
 62
     0
  5
AB
 10
19.248566
 20
4.437302
 30
0.0
 11
19.248566
 21
1.28949
 31
0.0
  0
LINE
  8
0
  6
CONTINUOUS
 62
     0
  5
AC
 10
20.5205
 20
4.437302
 30
0.0
 11
20.5205
 21
1.622192
 31
0.0
  0
LINE
  8
0
  6
CONTINUOUS
 62
     0
  5
AD
 10
3.786705
 20
4.437302
 30
0.0
 11
5.608849
 21
4.437302
 31
0.0
  0
LINE
  8
0
  6
CONTINUOUS
 62
     0
  5
AE
 10
3.228285
 20
2.219162
 30
0.0
 11
5.608237
 21
4.437769
 31
0.0
  0
LINE
  8
0
  6
CONTINUOUS
 62
     0
  5
AF
 10
3.228971
 20
2.218703
 30
0.0
 11
5.608881
 21
0.000134
 31
0.0
  0
LINE
  8
0
  6
CONTINUOUS
 62
     0
  5
B0
 10
3.786705
 20
0.000015
 30
0.0
 11
5.608849
 21
0.000015
 31
0.0
  0
LINE
  8
0
  6
CONTINUOUS
 62
     0
  5
B1
 10
2.041563
 20
1.627004
 30
0.0
 11
3.786919
 21
-0.000054
 31
0.0
  0
LINE
  8
0
  6
CONTINUOUS
 62
     0
  5
B2
 10
1.242905
 20
1.627098
 30
0.0
 11
2.041748
 21
1.627098
 31
0.0
  0
LINE
  8
0
  6
CONTINUOUS
 62
     0
  5
B3
 10
2.041729
 20
2.809854
 30
0.0
 11
3.78704
 21
4.436829
 31
0.0
  0
LINE
  8
0
  6
CONTINUOUS
 62
     0
  5
B4
 10
1.242905
 20
2.810196
 30
0.0
 11
2.041748
 21
2.810196
 31
0.0
  0
LINE
  8
0
  6
CONTINUOUS
 62
     0
  5
B5
 10
1.242874
 20
4.437302
 30
0.0
 11
1.242874
 21
2.810211
 31
0.0
  0
LINE
  8
0
  6
CONTINUOUS
 62
     0
  5
B6
 10
0.000366
 20
4.437302
 30
0.0
 11
1.242905
 21
4.437302
 31
0.0
  0
LINE
  8
0
  6
CONTINUOUS
 62
     0
  5
B7
 10
0.0
 20
4.437302
 30
0.0
 11
0.0
 21
0.000015
 31
0.0
  0
LINE
  8
0
  6
CONTINUOUS
 62
     0
  5
B8
 10
1.243866
 20
1.627106
 30
0.0
 11
1.243866
 21
0.0
 31
0.0
  0
LINE
  8
0
  6
CONTINUOUS
 62
     0
  5
B9
 10
0.000366
 20
0.0
 30
0.0
 11
1.242905
 21
0.0
 31
0.0
  0
LINE
  8
0
  6
CONTINUOUS
 62
     0
  5
BA
 10
25.549408
 20
0.000015
 30
0.0
 11
29.621742
 21
0.000015
 31
0.0
  0
LINE
  8
0
  6
CONTINUOUS
 62
     0
  5
BB
 10
19.248573
 20
4.437302
 30
0.0
 11
20.520576
 21
4.437302
 31
0.0
  0
LINE
  8
0
  6
CONTINUOUS
 62
     0
  5
BC
 10
36.674271
 20
0.000015
 30
0.0
 11
38.136307
 21
0.000015
 31
0.0
  0
LINE
  8
0
  6
CONTINUOUS
 62
     0
  5
BD
 10
31.288223
 20
0.0
 30
0.0
 11
32.750244
 21
0.0
 31
0.0
  0
LINE
  8
0
  6
CONTINUOUS
 62
     0
  5
BE
 10
33.802635
 20
4.437317
 30
0.0
 11
35.621895
 21
4.437317
 31
0.0
  0
LINE
  8
0
  6
CONTINUOUS
 62
     0
  5
BF
 10
16.834892
 20
4.437302
 30
0.0
 11
18.656952
 21
4.437302
 31
0.0
  0
LINE
  8
0
  6
CONTINUOUS
 62
     0
  5
C0
 10
16.834892
 20
0.000015
 30
0.0
 11
18.656952
 21
0.000015
 31
0.0
  0
LINE
  8
0
  6
CONTINUOUS
 62
     0
  5
C1
 10
14.29081
 20
1.627098
 30
0.0
 11
14.29081
 21
0.0
 31
0.0
  0
LINE
  8
0
  6
CONTINUOUS
 62
     0
  5
C2
 10
38.136126
 20
0.000097
 30
0.0
 11
35.62175
 21
4.437263
 31
0.0
  0
LINE
  8
0
  6
CONTINUOUS
 62
     0
  5
C3
 10
36.674036
 20
0.000002
 30
0.0
 11
36.254984
 21
0.739515
 31
0.0
  0
LINE
  8
0
  6
CONTINUOUS
 62
     0
  5
C4
 10
35.752436
 20
1.626965
 30
0.0
 11
34.712341
 21
3.462418
 31
0.0
  0
LINE
  8
0
  6
CONTINUOUS
 62
     0
  5
C5
 10
33.672051
 20
1.627072
 30
0.0
 11
34.712108
 21
3.462442
 31
0.0
  0
LINE
  8
0
  6
CONTINUOUS
 62
     0
  5
C6
 10
33.672188
 20
1.627083
 30
0.0
 11
35.752327
 21
1.627083
 31
0.0
  0
LINE
  8
0
  6
CONTINUOUS
 62
     0
  5
C7
 10
33.169319
 20
0.738998
 30
0.0
 11
36.255188
 21
0.738998
 31
0.0
  0
LINE
  8
0
  6
CONTINUOUS
 62
     0
  5
C8
 10
32.750442
 20
-0.000219
 30
0.0
 11
33.169532
 21
0.739348
 31
0.0
  0
LINE
  8
0
  6
CONTINUOUS
 62
     0
  5
C9
 10
31.287743
 20
0.000262
 30
0.0
 11
33.80215
 21
4.437459
 31
0.0
  0
LINE
  8
0
  6
CONTINUOUS
 62
     0
  5
CA
 10
16.277017
 20
2.218516
 30
0.0
 11
18.656834
 21
0.000049
 31
0.0
  0
LINE
  8
0
  6
CONTINUOUS
 62
     0
  5
CB
 10
15.089823
 20
1.626855
 30
0.0
 11
16.835171
 21
-0.000145
 31
0.0
  0
LINE
  8
0
  6
CONTINUOUS
 62
     0
  5
CC
 10
16.277186
 20
2.218402
 30
0.0
 11
18.657143
 21
4.437007
 31
0.0
  0
LINE
  8
0
  6
CONTINUOUS
 62
     0
  5
CD
 10
15.089013
 20
2.810919
 30
0.0
 11
16.834306
 21
4.437876
 31
0.0
  0
LINE
  8
0
  6
CONTINUOUS
 62
     0
  5
CE
 10
14.290756
 20
2.810212
 30
0.0
 11
15.089454
 21
2.810197
 31
0.0
  0
LINE
  8
0
  6
CONTINUOUS
 62
     0
  5
CF
 10
14.290886
 20
1.627098
 30
0.0
 11
15.089615
 21
1.627098
 31
0.0
  0
LINE
  8
0
  6
CONTINUOUS
 62
     0
  5
D0
 10
14.29081
 20
4.437302
 30
0.0
 11
14.29081
 21
2.810196
 31
0.0
  0
LINE
  8
0
  6
CONTINUOUS
 62
     0
  5
D1
 10
13.0485
 20
0.000015
 30
0.0
 11
14.290878
 21
0.000015
 31
0.0
  0
LINE
  8
0
  6
CONTINUOUS
 62
     0
  5
D2
 10
13.048416
 20
4.437317
 30
0.0
 11
13.048416
 21
0.000015
 31
0.0
  0
LINE
  8
0
  6
CONTINUOUS
 62
     0
  5
D3
 10
13.048546
 20
4.437316
 30
0.0
 11
14.290932
 21
4.437301
 31
0.0
  0
ENDBLK
  8
0
  6
BYBLOCK
 62
     0
  5
D4
  0
BLOCK
  8
0
  6
BYBLOCK
 62
     0
  5
DE
  2
*D3
 70
     1
 10
0.0
 20
0.0
 30
0.0
  3
*D3
  0
LINE
  8
0
  6
CONTINUOUS
 62
   143
  5
DF
 10
44.282062
 20
-26.690915
 30
0.0
 11
44.282062
 21
-25.190915
 31
0.0
  0
LINE
  8
0
  6
CONTINUOUS
 62
   143
  5
E0
 10
44.282062
 20
-38.325127
 30
0.0
 11
44.282062
 21
-26.690915
 31
0.0
  0
LINE
  8
0
  6
CONTINUOUS
 62
   143
  5
E1
 10
44.282062
 20
-26.690915
 30
0.0
 11
44.282062
 21
-33.040915
 31
0.0
  0
LINE
  8
0
  6
CONTINUOUS
 62
   143
  5
E2
 10
44.282062
 20
-25.190915
 30
0.0
 11
44.282062
 21
-18.840915
 31
0.0
  0
INSERT
  8
0
  6
CONTINUOUS
 62
   143
  5
E3
  2
_OPEN30
 10
44.282062
 20
-26.690915
 30
0.0
 41
2.77
 42
2.77
 50
90.0
 43
2.77
  0
INSERT
  8
0
  6
CONTINUOUS
 62
   143
  5
E4
  2
_OPEN30
 10
44.282062
 20
-25.190915
 30
0.0
 41
2.77
 42
2.77
 50
270.0
 43
2.77
  0
TEXT
  8
0
  6
CONTINUOUS
 62
   143
  5
E6
 10
43.782062
 20
-37.90846
 30
0.0
 40
2.5
  1
1.5
 50
90.0
  7
MX_DIMTXSTY_2
 11
42.532062
 21
-37.90846
 31
0.0
 73
     2
  0
POINT
  8
DEFPOINTS
  6
CONTINUOUS
 62
     0
  5
E7
 10
49.318235
 20
-26.690915
 30
0.0
  0
POINT
  8
DEFPOINTS
  6
CONTINUOUS
 62
     0
  5
E8
 10
46.877026
 20
-25.190915
 30
0.0
  0
POINT
  8
DEFPOINTS
  6
CONTINUOUS
 62
     0
  5
E9
 10
44.282062
 20
-25.190915
 30
0.0
  0
ENDBLK
  8
0
  6
BYBLOCK
 62
     0
  5
EA
  0
BLOCK
  8
0
  6
BYBLOCK
 62
     0
  5
ED
  2
*D4
 70
     1
 10
0.0
 20
0.0
 30
0.0
  3
*D4
  0
LINE
  8
0
  6
CONTINUOUS
 62
   143
  5
EE
 10
-50.712985
 20
115.938815
 30
0.0
 11
49.287015
 21
115.938815
 31
0.0
  0
LINE
  8
0
  6
CONTINUOUS
 62
   143
  5
EF
 10
-50.712985
 20
58.409815
 30
0.0
 11
-50.712985
 21
117.438815
 31
0.0
  0
LINE
  8
0
  6
CONTINUOUS
 62
   143
  5
F0
 10
49.287015
 20
58.409815
 30
0.0
 11
49.287015
 21
117.438815
 31
0.0
  0
INSERT
  8
0
  6
CONTINUOUS
 62
   143
  5
F1
  2
_OPEN30
 10
-50.712985
 20
115.938815
 30
0.0
 41
2.77
 42
2.77
 50
180.0
 43
2.77
  0
INSERT
  8
0
  6
CONTINUOUS
 62
   143
  5
F2
  2
_OPEN30
 10
49.287015
 20
115.938815
 30
0.0
 41
2.77
 42
2.77
 43
2.77
  0
TEXT
  8
0
  6
CONTINUOUS
 62
   143
  5
F4
 10
-2.794525
 20
116.438815
 30
0.0
 40
2.5
  1
%%cＡ
 41
1.004304
  7
MX_DIMTXSTY_3
 11
-2.794525
 21
117.688815
 31
0.0
 73
     2
  0
POINT
  8
DEFPOINTS
  6
CONTINUOUS
 62
     0
  5
F5
 10
-50.712985
 20
56.909815
 30
0.0
  0
POINT
  8
DEFPOINTS
  6
CONTINUOUS
 62
     0
  5
F6
 10
49.287015
 20
56.909815
 30
0.0
  0
POINT
  8
DEFPOINTS
  6
CONTINUOUS
 62
     0
  5
F7
 10
49.287015
 20
115.938815
 30
0.0
  0
ENDBLK
  8
0
  6
BYBLOCK
 62
     0
  5
F8
  0
ENDSEC
  0
SECTION
  2
ENTITIES
  0
LINE
  8
LY_1
  6
CONTINUOUS
 62
     3
  5
25
 10
-20.212985
 20
-91.886604
 30
0.0
 11
18.787015
 21
-91.886604
 31
0.0
  0
TEXT
  8
LY_1
  6
CONTINUOUS
 62
   143
  5
26
 10
9.255765
 20
-91.136604
 30
0.0
 40
2.5
  1
200
 41
1.125
  7
MX_NOTE_STANDARD
 11
9.255765
 21
-89.886604
 31
0.0
 73
     2
  0
TEXT
  8
LY_1
  6
CONTINUOUS
 62
   143
  5
27
 10
-19.016556
 20
-91.136604
 30
0.0
 40
2.5
  1
621-82-200
 41
1.071429
  7
MX_NOTE_STANDARD
 11
-19.016556
 21
-89.886604
 31
0.0
 73
     2
  0
LINE
  8
LY_1
  6
CONTINUOUS
 62
     3
  5
28
 10
-20.212985
 20
-47.886604
 30
0.0
 11
18.787015
 21
-47.886604
 31
0.0
  0
LINE
  8
LY_1
  6
CONTINUOUS
 62
     3
  5
29
 10
-20.212985
 20
-51.886604
 30
0.0
 11
18.787015
 21
-51.886604
 31
0.0
  0
LINE
  8
LY_1
  6
CONTINUOUS
 62
     3
  5
2A
 10
-20.212985
 20
-55.886604
 30
0.0
 11
18.787015
 21
-55.886604
 31
0.0
  0
LINE
  8
LY_1
  6
CONTINUOUS
 62
     3
  5
2B
 10
-20.212985
 20
-59.886604
 30
0.0
 11
18.787015
 21
-59.886604
 31
0.0
  0
LINE
  8
LY_1
  6
CONTINUOUS
 62
     3
  5
2C
 10
-20.212985
 20
-63.886604
 30
0.0
 11
18.787015
 21
-63.886604
 31
0.0
  0
LINE
  8
LY_1
  6
CONTINUOUS
 62
     3
  5
2D
 10
-20.212985
 20
-67.886604
 30
0.0
 11
18.787015
 21
-67.886604
 31
0.0
  0
LINE
  8
LY_1
  6
CONTINUOUS
 62
     3
  5
2E
 10
-20.212985
 20
-71.886604
 30
0.0
 11
18.787015
 21
-71.886604
 31
0.0
  0
LINE
  8
LY_1
  6
CONTINUOUS
 62
     3
  5
2F
 10
-20.212985
 20
-75.886604
 30
0.0
 11
18.787015
 21
-75.886604
 31
0.0
  0
LINE
  8
LY_1
  6
CONTINUOUS
 62
     3
  5
30
 10
-20.212985
 20
-79.886604
 30
0.0
 11
18.787015
 21
-79.886604
 31
0.0
  0
LINE
  8
LY_1
  6
CONTINUOUS
 62
     3
  5
31
 10
-20.212985
 20
-83.886604
 30
0.0
 11
18.787015
 21
-83.886604
 31
0.0
  0
LINE
  8
LY_1
  6
CONTINUOUS
 62
     3
  5
32
 10
-20.212985
 20
-87.886604
 30
0.0
 11
18.787015
 21
-87.886604
 31
0.0
  0
LINE
  8
LY_1
  6
CONTINUOUS
 62
     3
  5
33
 10
-20.212985
 20
-47.886604
 30
0.0
 11
-20.212985
 21
-91.886604
 31
0.0
  0
LINE
  8
LY_1
  6
CONTINUOUS
 62
     3
  5
34
 10
6.287015
 20
-47.886604
 30
0.0
 11
6.287015
 21
-91.886604
 31
0.0
  0
LINE
  8
LY_1
  6
CONTINUOUS
 62
     3
  5
35
 10
18.787015
 20
-47.886604
 30
0.0
 11
18.787015
 21
-91.886604
 31
0.0
  0
TEXT
  8
LY_1
  6
CONTINUOUS
 62
   143
  5
36
 10
-11.500022
 20
-51.136604
 30
0.0
 40
2.5
  1
品  番
 41
1.111111
  7
MX_NOTE_STANDARD
 11
-11.500022
 21
-49.886604
 31
0.0
 73
     2
  0
TEXT
  8
LY_1
  6
CONTINUOUS
 62
   143
  5
37
 10
11.703682
 20
-51.136604
 30
0.0
 40
2.5
  1
A
  7
MX_NOTE_STANDARD
 11
11.703682
 21
-49.886604
 31
0.0
 73
     2
  0
TEXT
  8
LY_1
  6
CONTINUOUS
 62
   143
  5
38
 10
-19.024388
 20
-55.136604
 30
0.0
 40
2.5
  1
621-82-049
 41
1.052632
  7
MX_NOTE_STANDARD
 11
-19.024388
 21
-53.886604
 31
0.0
 73
     2
  0
TEXT
  8
LY_1
  6
CONTINUOUS
 62
   143
  5
39
 10
9.267785
 20
-55.136604
 30
0.0
 40
2.5
  1
 49
 41
1.153846
  7
MX_NOTE_STANDARD
 11
9.267785
 21
-53.886604
 31
0.0
 73
     2
  0
TEXT
  8
LY_1
  6
CONTINUOUS
 62
   143
  5
3A
 10
-19.008439
 20
-59.136604
 30
0.0
 40
2.5
  1
621-82-061
 41
1.090909
  7
MX_NOTE_STANDARD
 11
-19.008439
 21
-57.886604
 31
0.0
 73
     2
  0
TEXT
  8
LY_1
  6
CONTINUOUS
 62
   143
  5
3B
 10
9.338486
 20
-59.136604
 30
0.0
 40
2.5
  1
 61
 41
1.323529
  7
MX_NOTE_STANDARD
 11
9.338486
 21
-57.886604
 31
0.0
 73
     2
  0
TEXT
  8
LY_1
  6
CONTINUOUS
 62
   143
  5
3C
 10
-19.016556
 20
-63.136604
 30
0.0
 40
2.5
  1
621-82-080
 41
1.071429
  7
MX_NOTE_STANDARD
 11
-19.016556
 21
-61.886604
 31
0.0
 73
     2
  0
TEXT
  8
LY_1
  6
CONTINUOUS
 62
   143
  5
3D
 10
9.300714
 20
-63.136604
 30
0.0
 40
2.5
  1
 80
 41
1.232877
  7
MX_NOTE_STANDARD
 11
9.300714
 21
-61.886604
 31
0.0
 73
     2
  0
TEXT
  8
LY_1
  6
CONTINUOUS
 62
   143
  5
3E
 10
-19.000022
 20
-67.136604
 30
0.0
 40
2.5
  1
621-82-100
 41
1.111111
  7
MX_NOTE_STANDARD
 11
-19.000022
 21
-65.886604
 31
0.0
 73
     2
  0
TEXT
  8
LY_1
  6
CONTINUOUS
 62
   143
  5
3F
 10
9.32273
 20
-67.136604
 30
0.0
 40
2.5
  1
100
 41
1.285714
  7
MX_NOTE_STANDARD
 11
9.32273
 21
-65.886604
 31
0.0
 73
     2
  0
TEXT
  8
LY_1
  6
CONTINUOUS
 62
   143
  5
40
 10
-19.008439
 20
-71.136604
 30
0.0
 40
2.5
  1
621-82-120
 41
1.090909
  7
MX_NOTE_STANDARD
 11
-19.008439
 21
-69.886604
 31
0.0
 73
     2
  0
TEXT
  8
LY_1
  6
CONTINUOUS
 62
   143
  5
41
 10
9.287015
 20
-71.136604
 30
0.0
 40
2.5
  1
120
 41
1.2
  7
MX_NOTE_STANDARD
 11
9.287015
 21
-69.886604
 31
0.0
 73
     2
  0
TEXT
  8
LY_1
  6
CONTINUOUS
 62
   143
  5
42
 10
-19.008439
 20
-75.136604
 30
0.0
 40
2.5
  1
621-82-130
 41
1.090909
  7
MX_NOTE_STANDARD
 11
-19.008439
 21
-73.886604
 31
0.0
 73
     2
  0
TEXT
  8
LY_1
  6
CONTINUOUS
 62
   143
  5
43
 10
9.287015
 20
-75.136604
 30
0.0
 40
2.5
  1
130
 41
1.2
  7
MX_NOTE_STANDARD
 11
9.287015
 21
-73.886604
 31
0.0
 73
     2
  0
TEXT
  8
LY_1
  6
CONTINUOUS
 62
   143
  5
44
 10
-19.008439
 20
-79.136604
 30
0.0
 40
2.5
  1
621-82-150
 41
1.090909
  7
MX_NOTE_STANDARD
 11
-19.008439
 21
-77.886604
 31
0.0
 73
     2
  0
TEXT
  8
LY_1
  6
CONTINUOUS
 62
   143
  5
45
 10
9.287015
 20
-79.136604
 30
0.0
 40
2.5
  1
150
 41
1.2
  7
MX_NOTE_STANDARD
 11
9.287015
 21
-77.886604
 31
0.0
 73
     2
  0
TEXT
  8
LY_1
  6
CONTINUOUS
 62
   143
  5
46
 10
-19.008439
 20
-83.136604
 30
0.0
 40
2.5
  1
621-82-170
 41
1.090909
  7
MX_NOTE_STANDARD
 11
-19.008439
 21
-81.886604
 31
0.0
 73
     2
  0
TEXT
  8
LY_1
  6
CONTINUOUS
 62
   143
  5
47
 10
9.287015
 20
-83.136604
 30
0.0
 40
2.5
  1
170
 41
1.2
  7
MX_NOTE_STANDARD
 11
9.287015
 21
-81.886604
 31
0.0
 73
     2
  0
TEXT
  8
LY_1
  6
CONTINUOUS
 62
   143
  5
48
 10
-19.008439
 20
-87.136604
 30
0.0
 40
2.5
  1
621-82-180
 41
1.090909
  7
MX_NOTE_STANDARD
 11
-19.008439
 21
-85.886604
 31
0.0
 73
     2
  0
TEXT
  8
LY_1
  6
CONTINUOUS
 62
   143
  5
49
 10
9.287015
 20
-87.136604
 30
0.0
 40
2.5
  1
180
 41
1.2
  7
MX_NOTE_STANDARD
 11
9.287015
 21
-85.886604
 31
0.0
 73
     2
  0
LINE
  8
DEFPOINTS
  6
NON_PLOTING
 62
   130
  5
4B
 10
-105.0
 20
148.5
 30
0.0
 11
105.0
 21
148.5
 31
0.0
  0
LINE
  8
DEFPOINTS
  6
NON_PLOTING
 62
   130
  5
4C
 10
-105.0
 20
-148.5
 30
0.0
 11
105.0
 21
-148.5
 31
0.0
  0
LINE
  8
DEFPOINTS
  6
NON_PLOTING
 62
   130
  5
4D
 10
-105.0
 20
-148.5
 30
0.0
 11
-105.0
 21
148.5
 31
0.0
  0
LINE
  8
DEFPOINTS
  6
NON_PLOTING
 62
   130
  5
4E
 10
105.0
 20
-148.5
 30
0.0
 11
105.0
 21
148.5
 31
0.0
  0
LINE
  8
LY_1
  6
CONTINUOUS
 62
   120
  5
4F
 10
-95.0
 20
-138.5
 30
0.0
 11
95.0
 21
-138.5
 31
0.0
  0
LINE
  8
LY_1
  6
CONTINUOUS
 62
   120
  5
50
 10
95.0
 20
-138.5
 30
0.0
 11
95.0
 21
138.5
 31
0.0
  0
LINE
  8
LY_1
  6
CONTINUOUS
 62
   120
  5
51
 10
-95.0
 20
138.5
 30
0.0
 11
95.0
 21
138.5
 31
0.0
  0
LINE
  8
LY_1
  6
CONTINUOUS
 62
   120
  5
52
 10
-95.0
 20
-138.5
 30
0.0
 11
-95.0
 21
138.5
 31
0.0
  0
LINE
  8
LY_1
  6
CONTINUOUS
 62
   130
  5
53
 10
17.0
 20
-113.5
 30
0.0
 11
17.0
 21
-138.5
 31
0.0
  0
LINE
  8
LY_1
  6
CONTINUOUS
 62
   130
  5
54
 10
2.0
 20
-113.5
 30
0.0
 11
2.0
 21
-133.5
 31
0.0
  0
LINE
  8
LY_1
  6
CONTINUOUS
 62
   130
  5
55
 10
-13.0
 20
-113.5
 30
0.0
 11
-13.0
 21
-133.5
 31
0.0
  0
LINE
  8
LY_1
  6
CONTINUOUS
 62
   130
  5
56
 10
22.0
 20
-113.5
 30
0.0
 11
22.0
 21
-138.5
 31
0.0
  0
LINE
  8
LY_1
  6
CONTINUOUS
 62
   130
  5
57
 10
-28.0
 20
-113.5
 30
0.0
 11
-28.0
 21
-138.5
 31
0.0
  0
TEXT
  8
LY_1
  6
CONTINUOUS
 62
   140
  5
58
 10
17.914088
 20
-136.34462
 30
0.0
 40
3.75
  1
名
 41
0.9525
  7
MX_NOTE_STANDARD
 11
17.914088
 21
-134.46962
 31
0.0
 73
     2
  0
TEXT
  8
LY_1
  6
CONTINUOUS
 62
   110
  5
59
 10
-33.512996
 20
-124.319679
 30
0.0
 40
3.75
  1
1
 41
1.7145
  7
MX_NOTE_STANDARD
 11
-33.512996
 21
-122.444679
 31
0.0
 73
     2
  0
TEXT
  8
LY_1
  6
CONTINUOUS
 62
   110
  5
5A
 10
-40.416326
 20
-119.082664
 30
0.0
 40
3.75
  1
1
 41
1.7145
  7
MX_NOTE_STANDARD
 11
-40.416326
 21
-117.207664
 31
0.0
 73
     2
  0
TEXT
  8
LY_1
  6
CONTINUOUS
 62
   140
  5
5B
 10
-47.085912
 20
-118.84462
 30
0.0
 40
3.75
  1
尺
 41
0.9525
  7
MX_NOTE_STANDARD
 11
-47.085912
 21
-116.96962
 31
0.0
 73
     2
  0
TEXT
  8
LY_1
  6
CONTINUOUS
 62
   140
  5
5C
 10
-47.085912
 20
-123.84462
 30
0.0
 40
3.75
  1
度
 41
0.9525
  7
MX_NOTE_STANDARD
 11
-47.085912
 21
-121.96962
 31
0.0
 73
     2
  0
TEXT
  8
LY_1
  6
CONTINUOUS
 62
   140
  5
5D
 10
-66.571854
 20
-121.701172
 30
0.0
 40
3.75
  1
単位ｍｍ
  7
MX_NOTE_STANDARD
 11
-66.571854
 21
-119.826172
 31
0.0
 73
     2
  0
TEXT
  8
LY_1
  6
CONTINUOUS
 62
   140
  5
5E
 10
17.914088
 20
-131.34462
 30
0.0
 40
3.75
  1
品
 41
0.9525
  7
MX_NOTE_STANDARD
 11
17.914088
 21
-129.46962
 31
0.0
 73
     2
  0
TEXT
  8
LY_1
  6
CONTINUOUS
 62
   140
  5
5F
 10
17.914088
 20
-123.84462
 30
0.0
 40
3.75
  1
番
 41
0.9525
  7
MX_NOTE_STANDARD
 11
17.914088
 21
-121.96962
 31
0.0
 73
     2
  0
TEXT
  8
LY_1
  6
CONTINUOUS
 62
   140
  5
60
 10
17.914088
 20
-118.84462
 30
0.0
 40
3.75
  1
品
 41
0.9525
  7
MX_NOTE_STANDARD
 11
17.914088
 21
-116.96962
 31
0.0
 73
     2
  0
TEXT
  8
LY_1
  6
CONTINUOUS
 62
   140
  5
61
 10
-10.831903
 20
-117.598474
 30
0.0
 40
3.2
  1
検　図
  7
MX_NOTE_STANDARD
 11
-10.831903
 21
-115.998474
 31
0.0
 73
     2
  0
TEXT
  8
LY_1
  6
CONTINUOUS
 62
   140
  5
62
 10
-25.831903
 20
-117.598474
 30
0.0
 40
3.2
  1
製　図
  7
MX_NOTE_STANDARD
 11
-25.831903
 21
-115.998474
 31
0.0
 73
     2
  0
TEXT
  8
LY_1
  6
CONTINUOUS
 62
   140
  5
63
 10
4.168097
 20
-117.598474
 30
0.0
 40
3.2
  1
承　認
  7
MX_NOTE_STANDARD
 11
4.168097
 21
-115.998474
 31
0.0
 73
     2
  0
CIRCLE
  8
LY_1
  6
CONTINUOUS
 62
   130
  5
64
 10
-86.340515
 20
-119.75
 30
0.0
 40
1.875
  0
CIRCLE
  8
LY_1
  6
CONTINUOUS
 62
   130
  5
65
 10
-86.340515
 20
-119.75
 30
0.0
 40
3.375
  0
LINE
  8
LY_1
  6
CONTINUOUS
 62
   130
  5
66
 10
17.0
 20
-126.0
 30
0.0
 11
95.0
 21
-126.0
 31
0.0
  0
LINE
  8
LY_1
  6
CONTINUOUS
 62
   130
  5
67
 10
32.199997
 20
-113.5
 30
0.0
 11
95.0
 21
-113.5
 31
0.0
  0
LINE
  8
LY_1
  6
CONTINUOUS
 62
   130
  5
68
 10
-32.217645
 20
-117.014689
 30
0.0
 11
-39.920969
 21
-123.434125
 31
0.0
  0
LINE
  8
LY_1
  6
CONTINUOUS
 62
   130
  5
69
 10
-43.0
 20
-113.5
 30
0.0
 11
-43.0
 21
-126.0
 31
0.0
  0
LINE
  8
LY_1
  6
CONTINUOUS
 62
   130
  5
6A
 10
-68.0
 20
-113.5
 30
0.0
 11
-68.0
 21
-126.0
 31
0.0
  0
LINE
  8
LY_1
  6
CONTINUOUS
 62
   130
  5
6B
 10
-48.0
 20
-113.5
 30
0.0
 11
-48.0
 21
-126.0
 31
0.0
  0
LINE
  8
LY_1
  6
CONTINUOUS
 62
   130
  5
6C
 10
-95.0
 20
-126.0
 30
0.0
 11
-28.0
 21
-126.0
 31
0.0
  0
LINE
  8
LY_1
  6
CONTINUOUS
 62
   130
  5
6D
 10
-95.0
 20
-113.5
 30
0.0
 11
32.199997
 21
-113.5
 31
0.0
  0
LINE
  8
LY_1
  6
CONTINUOUS
 62
   130
  5
6E
 10
-28.0
 20
-118.5
 30
0.0
 11
17.0
 21
-118.5
 31
0.0
  0
LINE
  8
LY_1
  6
CONTINUOUS
 62
   130
  5
6F
 10
-28.0
 20
-133.5
 30
0.0
 11
17.0
 21
-133.5
 31
0.0
  0
LINE
  8
LY_1
  6
CONTINUOUS
 62
   130
  5
70
 10
-80.715521
 20
-121.625005
 30
0.0
 11
-73.215521
 21
-123.125005
 31
0.0
  0
LINE
  8
LY_1
  6
CONTINUOUS
 62
   130
  5
71
 10
-80.715524
 20
-117.875012
 30
0.0
 11
-73.215524
 21
-116.375012
 31
0.0
  0
LINE
  8
LY_1
  6
CONTINUOUS
 62
   130
  5
72
 10
-73.215515
 20
-116.375
 30
0.0
 11
-73.215515
 21
-123.124985
 31
0.0
  0
LINE
  8
LY_1
  6
CONTINUOUS
 62
   130
  5
73
 10
-80.715515
 20
-117.875
 30
0.0
 11
-80.715515
 21
-121.624985
 31
0.0
  0
LINE
  8
LY_1
  6
CENTER
 62
   140
  5
75
 10
-86.340515
 20
-114.676628
 30
0.0
 11
-86.340515
 21
-124.753326
 31
0.0
  0
LINE
  8
LY_1
  6
CENTER
 62
   140
  5
76
 10
-91.108955
 20
-119.75
 30
0.0
 11
-71.675331
 21
-119.75
 31
0.0
  0
INSERT
  8
LY_1
  6
BYBLOCK
 62
   143
  5
85
  2
$KAKUDAI-3
 10
-84.340515
 20
-132.25
 30
0.0
  0
INSERT
  8
LY_1
  6
BYBLOCK
 62
   143
  5
D5
  2
$KAKUDAI-2
 10
-75.129906
 20
-134.630508
 30
0.0
  0
TEXT
  8
LY_1
  6
CONTINUOUS
 62
   143
  5
D6
 10
25.125
 20
-122.0
 30
0.0
 40
4.5
  1
図中表に記載
 41
0.833333
  7
MX_NOTE_STANDARD
 11
25.125
 21
-119.75
 31
0.0
 73
     2
  0
TEXT
  8
LY_1
  6
CONTINUOUS
 62
   143
  5
D7
 10
25.125
 20
-134.5
 30
0.0
 40
4.5
  1
ビニールプレート（穴なし）
 41
0.833333
  7
MX_NOTE_STANDARD
 11
25.125
 21
-132.25
 31
0.0
 73
     2
  0
TEXT
  8
LY_1
  6
CONTINUOUS
 62
   143
  5
D8
 10
-86.171709
 20
-110.146591
 30
0.0
 40
4.0
  1
注：図面寸法は621-82-100である。
 41
0.945946
  7
MX_NOTE_STANDARD
  0
TEXT
  8
LY_1
  6
CONTINUOUS
 62
   143
  5
D9
 10
-23.838134
 20
-127.418588
 30
0.0
 40
4.0
  1
野村
 41
0.833333
  7
MX_NOTE_STANDARD
  0
TEXT
  8
LY_1
  6
CONTINUOUS
 62
   143
  5
DA
 10
-8.838134
 20
-127.418588
 30
0.0
 40
4.0
  1
陰山
 41
0.833333
  7
MX_NOTE_STANDARD
  0
TEXT
  8
LY_1
  6
CONTINUOUS
 62
   143
  5
DB
 10
6.161866
 20
-127.418588
 30
0.0
 40
4.0
  1
橋本
 41
0.833333
  7
MX_NOTE_STANDARD
  0
TEXT
  8
LY_1
  6
CONTINUOUS
 62
   143
  5
DC
 10
-26.465649
 20
-137.5
 30
0.0
 40
3.0
  1
2005年01月11日 作成
 41
1.068702
  7
MX_NOTE_STANDARD
 11
-26.465649
 21
-136.0
 31
0.0
 73
     2
  0
DIMENSION
  8
LY_1
  6
CONTINUOUS
 62
   143
  5
EB
  2
*D3
 10
44.282062
 20
-25.190915
 30
0.0
 11
44.282062
 21
-34.575127
 31
0.0
 70
   128
  1
<>
 13
49.318235
 23
-26.690915
 33
0.0
 14
46.877026
 24
-25.190915
 34
0.0
 50
90.0
  3
MXDIMSTYLE
1001
ACAD
1000
DSTYLE
1002
{
1070
    41
1040
2.77
1070
    75
1070
     1
1070
    76
1070
     1
1070
   271
1070
     1
1070
   284
1070
     8
1070
   340
1005
E5
1002
}
  0
DIMENSION
  8
LY_1
  6
CONTINUOUS
 62
   143
  5
F9
  2
*D4
 10
49.287015
 20
115.938815
 30
0.0
 11
-0.712985
 21
115.938815
 31
0.0
 70
   128
  1
%%cＡ
 13
-50.712985
 23
56.909815
 33
0.0
 14
49.287015
 24
56.909815
 34
0.0
  3
MXDIMSTYLE
1001
ACAD
1000
DSTYLE
1002
{
1070
    41
1040
2.77
1070
    78
1070
     0
1070
   271
1070
     1
1070
   340
1005
F3
1002
}
  0
ARC
  8
LY_1
  6
CONTINUOUS
 62
     3
  5
FA
 10
-48.302995
 20
-27.876931
 30
0.0
 40
2.686016
 50
90.0
 51
153.797044
  0
ARC
  8
LY_1
  6
CONTINUOUS
 62
     3
  5
FB
 10
46.877026
 20
-27.876931
 30
0.0
 40
2.686016
 50
26.202956
 51
90.0
  0
LINE
  8
LY_1
  6
CONTINUOUS
 62
     3
  5
FC
 10
-50.712985
 20
-26.690915
 30
0.0
 11
49.318235
 21
-26.690915
 31
0.0
  0
LINE
  8
LY_1
  6
CONTINUOUS
 62
     3
  5
FD
 10
-48.302995
 20
-25.190915
 30
0.0
 11
46.877026
 21
-25.190915
 31
0.0
  0
LINE
  8
LY_1
  6
CENTER
 62
   110
  5
FE
 10
-0.712985
 20
-22.228486
 30
0.0
 11
-0.712985
 21
-29.886604
 31
0.0
  0
CIRCLE
  8
LY_1
  6
CONTINUOUS
 62
     3
  5
FF
 10
-0.712985
 20
56.909817
 30
0.0
 40
50.0
  0
LINE
  8
LY_1
  6
CENTER
 62
   110
  5
100
 10
-0.712985
 20
110.096158
 30
0.0
 11
-0.712985
 21
0.568353
 31
0.0
  0
LINE
  8
LY_1
  6
CENTER
 62
   110
  5
101
 10
-59.758838
 20
56.909817
 30
0.0
 11
55.477649
 21
56.909817
 31
0.0
  0
ENDSEC
  0
EOF
