  0
SECTION
  2
HEADER
  9
$ACADVER
  1
AC1003
  9
$INSBASE
 10
0.0
 20
0.0
  9
$EXTMIN
 10
5174.860352
 20
2811.237305
  9
$EXTMAX
 10
8327.360352
 20
5011.237305
  9
$LIMMIN
 10
0.0
 20
0.0
  9
$LIMMAX
 10
12.0
 20
9.0
  9
$VIEWCTR
 10
6.591288
 20
4.579184
  9
$VIEWSIZE
 40
9.158369
  9
$SNAPMODE
 70
     0
  9
$SNAPUNIT
 10
1.0
 20
1.0
  9
$SNAPBASE
 10
0.0
 20
0.0
  9
$SNAPANG
 50
0.0
  9
$SNAPSTYLE
 70
     0
  9
$SNAPISOPAIR
 70
     0
  9
$GRIDMODE
 70
     0
  9
$GRIDUNIT
 10
0.0
 20
0.0
  9
$ORTHOMODE
 70
     0
  9
$REGENMODE
 70
     1
  9
$FILLMODE
 70
     1
  9
$QTEXTMODE
 70
     0
  9
$DRAGMODE
 70
     2
  9
$LTSCALE
 40
52.541667
  9
$OSMODE
 70
     0
  9
$ATTMODE
 70
     1
  9
$TEXTSIZE
 40
3.2
  9
$TRACEWID
 40
0.05
  9
$TEXTSTYLE
  7
STANDARD
  9
$CLAYER
  8
0
  9
$CELTYPE
  6
CONTINUOUS
  9
$CECOLOR
 62
   256
  9
$DIMSCALE
 40
1.0
  9
$DIMASZ
 40
0.18
  9
$DIMEXO
 40
0.0625
  9
$DIMDLI
 40
0.38
  9
$DIMRND
 40
0.0
  9
$DIMDLE
 40
0.0
  9
$DIMEXE
 40
0.18
  9
$DIMTP
 40
0.0
  9
$DIMTM
 40
0.0
  9
$DIMTXT
 40
0.18
  9
$DIMCEN
 40
0.09
  9
$DIMTSZ
 40
0.0
  9
$DIMTOL
 70
     0
  9
$DIMLIM
 70
     0
  9
$DIMTIH
 70
     1
  9
$DIMTOH
 70
     1
  9
$DIMSE1
 70
     0
  9
$DIMSE2
 70
     0
  9
$DIMTAD
 70
     0
  9
$DIMZIN
 70
     0
  9
$DIMBLK
  1

  9
$DIMASO
 70
     1
  9
$DIMSHO
 70
     1
  9
$DIMPOST
  1

  9
$DIMAPOST
  1

  9
$DIMALT
 70
     0
  9
$DIMALTD
 70
     2
  9
$DIMALTF
 40
25.4
  9
$DIMLFAC
 40
1.0
  9
$LUNITS
 70
     2
  9
$LUPREC
 70
     4
  9
$AXISMODE
 70
     0
  9
$AXISUNIT
 10
0.0
 20
0.0
  9
$SKETCHINC
 40
0.1
  9
$FILLETRAD
 40
0.0
  9
$AUNITS
 70
     0
  9
$AUPREC
 70
     0
  9
$MENU
  1
acad
  9
$ELEVATION
 40
0.0
  9
$THICKNESS
 40
0.0
  9
$VIEWDIR
 10
0.0
 20
0.0
 30
1.0
  9
$LIMCHECK
 70
     0
  9
$BLIPMODE
 70
     1
  9
$CHAMFERA
 40
0.0
  9
$CHAMFERB
 40
0.0
  9
$FASTZOOM
 70
     1
  9
$SKPOLY
 70
     0
  9
$TDCREATE
 40
0.000000000
  9
$TDUPDATE
 40
0.000000000
  9
$TDINDWG
 40
0.0000000000
  9
$TDUSRTIMER
 40
0.0000000000
  9
$USRTIMER
 70
     1
  9
$ANGBASE
 50
0.0
  9
$ANGDIR
 70
     0
  9
$PDMODE
 70
     0
  9
$PDSIZE
 40
0.0
  9
$PLINEWID
 40
0.0
  9
$COORDS
 70
     1
  9
$USERI1
 70
     0
  9
$USERI2
 70
     0
  9
$USERI3
 70
     0
  9
$USERI4
 70
     0
  9
$USERI5
 70
     0
  9
$USERR1
 40
0.0
  9
$USERR2
 40
0.0
  9
$USERR3
 40
0.0
  9
$USERR4
 40
0.0
  9
$USERR5
 40
0.0
  0
ENDSEC
  0
SECTION
  2
TABLES
  0
TABLE
  2
LTYPE
 70
    25
  0
LTYPE
  2
CONTINUOUS
 70
    64
  3
Solid line
 72
    65
 73
     0
 40
0.0
  0
LTYPE
  2
DASHED
 70
    64
  3
DASHED
 72
    65
 73
     2
 40
0.75
 49
0.5
 49
-0.25
  0
LTYPE
  2
HIDDEN
 70
    64
  3
HIDDEN
 72
    65
 73
     2
 40
0.375
 49
0.25
 49
-0.125
  0
LTYPE
  2
CENTER
 70
    64
  3
CENTER
 72
    65
 73
     4
 40
2.0
 49
1.25
 49
-0.25
 49
0.25
 49
-0.25
  0
LTYPE
  2
PHANTOM
 70
    64
  3
PHANTOM
 72
    65
 73
     6
 40
2.5
 49
1.25
 49
-0.25
 49
0.25
 49
-0.25
 49
0.25
 49
-0.25
  0
LTYPE
  2
BORDER
 70
    64
  3
BORDER
 72
    65
 73
     6
 40
1.75
 49
0.5
 49
-0.25
 49
0.5
 49
-0.25
 49
0.0
 49
-0.25
  0
LTYPE
  2
BORDER2
 70
    64
  3
BORDER2
 72
    65
 73
     6
 40
0.875
 49
0.25
 49
-0.125
 49
0.25
 49
-0.125
 49
0.0
 49
-0.125
  0
LTYPE
  2
BORDERX2
 70
    64
  3
BORDERX2
 72
    65
 73
     6
 40
3.5
 49
1.0
 49
-0.5
 49
1.0
 49
-0.5
 49
0.0
 49
-0.5
  0
LTYPE
  2
CENTER2
 70
    64
  3
CENTER2
 72
    65
 73
     4
 40
1.125
 49
0.75
 49
-0.125
 49
0.125
 49
-0.125
  0
LTYPE
  2
CENTERX2
 70
    64
  3
CENTERX2
 72
    65
 73
     4
 40
4.0
 49
2.5
 49
-0.5
 49
0.5
 49
-0.5
  0
LTYPE
  2
DASHDOT
 70
    64
  3
DASHDOT
 72
    65
 73
     4
 40
1.0
 49
0.5
 49
-0.25
 49
0.0
 49
-0.25
  0
LTYPE
  2
DASHDOT2
 70
    64
  3
DASHDOT2
 72
    65
 73
     4
 40
0.5
 49
0.25
 49
-0.125
 49
0.0
 49
-0.125
  0
LTYPE
  2
DASHDOTX2
 70
    64
  3
DASHDOTX2
 72
    65
 73
     4
 40
2.0
 49
1.0
 49
-0.5
 49
0.0
 49
-0.5
  0
LTYPE
  2
DASHED2
 70
    64
  3
DASHED2
 72
    65
 73
     2
 40
0.375
 49
0.25
 49
-0.125
  0
LTYPE
  2
DASHEDX2
 70
    64
  3
DASHEDX2
 72
    65
 73
     2
 40
1.5
 49
1.0
 49
-0.5
  0
LTYPE
  2
DIVIDE
 70
    64
  3
DIVIDE
 72
    65
 73
     6
 40
1.25
 49
0.5
 49
-0.25
 49
0.0
 49
-0.25
 49
0.0
 49
-0.25
  0
LTYPE
  2
DIVIDE2
 70
    64
  3
DIVIDE2
 72
    65
 73
     6
 40
0.625
 49
0.25
 49
-0.125
 49
0.0
 49
-0.125
 49
0.0
 49
-0.125
  0
LTYPE
  2
DIVIDEX2
 70
    64
  3
DIVIDEX2
 72
    65
 73
     6
 40
2.5
 49
1.0
 49
-0.5
 49
0.0
 49
-0.5
 49
0.0
 49
-0.5
  0
LTYPE
  2
DOT
 70
    64
  3
DOT
 72
    65
 73
     2
 40
0.25
 49
0.0
 49
-0.25
  0
LTYPE
  2
DOT2
 70
    64
  3
DOT2
 72
    65
 73
     2
 40
0.125
 49
0.0
 49
-0.125
  0
LTYPE
  2
DOTX2
 70
    64
  3
DOTX2
 72
    65
 73
     2
 40
0.5
 49
0.0
 49
-0.5
  0
LTYPE
  2
HIDDEN2
 70
    64
  3
HIDDEN2
 72
    65
 73
     2
 40
0.1875
 49
0.125
 49
-0.0625
  0
LTYPE
  2
HIDDENX2
 70
    64
  3
HIDDENX2
 72
    65
 73
     2
 40
0.75
 49
0.5
 49
-0.25
  0
LTYPE
  2
PHANTOM2
 70
    64
  3
PHANTOM2
 72
    65
 73
     6
 40
1.25
 49
0.625
 49
-0.125
 49
0.125
 49
-0.125
 49
0.125
 49
-0.125
  0
LTYPE
  2
PHANTOMX2
 70
    64
  3
PHANTOMX2
 72
    65
 73
     6
 40
5.0
 49
2.5
 49
-0.5
 49
0.5
 49
-0.5
 49
0.5
 49
-0.5
  0
ENDTAB
  0
TABLE
  2
LAYER
 70
     3
  0
LAYER
  2
0
 70
     0
 62
     7
  6
CONTINUOUS
  0
LAYER
  2
001
 70
     0
 62
     7
  6
CONTINUOUS
  0
LAYER
  2
002
 70
     0
 62
     7
  6
CONTINUOUS
  0
ENDTAB
  0
TABLE
  2
STYLE
 70
     2
  0
STYLE
  2
STANDARD
 70
     0
 40
0.0
 41
1.0
 50
0.0
 71
     0
 42
0.2
  3
TXT
  4
BIGFONT
  0
STYLE
  2
TATEGAKI
 70
     4
 40
1.0
 41
1.0
 50
0.0
 71
     0
 42
0.2
  3
TXT
  4
BIGFONT
  0
ENDTAB
  0
TABLE
  2
VIEW
 70
     0
  0
ENDTAB
  0
ENDSEC
  0
SECTION
  2
BLOCKS
  0
BLOCK
  8
001
  2
PART0
 70
     0
 10
0.0
 20
0.0
  0
LINE
  8
002
  6
HIDDEN
 62
     9
 10
1414.0
 20
-280.0
 11
1414.0
 21
-270.0
  0
LINE
  8
002
  6
HIDDEN
 62
     9
 10
1414.0
 20
-280.0
 11
1424.0
 21
-280.0
  0
LINE
  8
002
  6
HIDDEN
 62
     9
 10
820.0
 20
-280.0
 11
820.0
 21
-270.0
  0
LINE
  8
002
  6
HIDDEN
 62
     9
 10
820.0
 20
-280.0
 11
810.0
 21
-280.0
  0
LINE
  8
002
  6
HIDDEN
 62
     9
 10
820.0
 20
-700.0
 11
810.0
 21
-700.0
  0
LINE
  8
002
  6
HIDDEN
 62
     9
 10
820.0
 20
-700.0
 11
820.0
 21
-710.0
  0
LINE
  8
002
  6
HIDDEN
 62
     9
 10
1414.0
 20
-700.0
 11
1424.0
 21
-700.0
  0
LINE
  8
002
  6
HIDDEN
 62
     9
 10
1414.0
 20
-700.0
 11
1414.0
 21
-710.0
  0
ENDBLK
  8
001
  0
BLOCK
  8
0
  2
ARROW
 70
     0
 10
0.0
 20
0.0
  0
POLYLINE
  8
0
  6
CONTINUOUS
 62
     0
 66
     1
  0
VERTEX
  8
0
  6
CONTINUOUS
 62
     0
 10
10.0
 20
2.679492
  0
VERTEX
  8
0
  6
CONTINUOUS
 62
     0
 10
0.0
 20
0.0
  0
VERTEX
  8
0
  6
CONTINUOUS
 62
     0
 10
10.0
 20
-2.679492
  0
SEQEND
  8
0
  0
ENDBLK
  8
0
  0
BLOCK
  8
001
  2
*D2
 70
     1
 10
0.0
 20
0.0
  0
LINE
  8
001
 62
     4
 10
5704.269483
 20
4066.452541
 11
5704.269483
 21
4126.578864
  0
LINE
  8
001
 62
     4
 10
5724.269483
 20
4066.452541
 11
5724.269483
 21
4126.578864
  0
LINE
  8
001
 62
     4
 10
5704.269483
 20
4121.578864
 11
5724.269483
 21
4121.578864
  0
INSERT
  8
001
  6
BYBLOCK
 62
     4
  2
ARROW
 10
5704.269483
 20
4121.578864
 50
180.0
  0
INSERT
  8
001
  6
BYBLOCK
 62
     4
  2
ARROW
 10
5724.269483
 20
4121.578864
  0
TEXT
  8
001
 62
     4
 10
5739.269483
 20
4126.578864
 40
20.0
  1
20
 41
1.090909
  0
POINT
  8
001
 62
     4
 10
5704.269483
 20
4061.452541
  0
POINT
  8
001
 62
     4
 10
5724.269483
 20
4061.452541
  0
POINT
  8
001
 62
     4
 10
5724.269483
 20
4121.578864
  0
LINE
  8
001
 62
     4
 10
5704.269483
 20
4121.578864
 11
5689.269483
 21
4121.578864
  0
LINE
  8
001
 62
     4
 10
5724.269483
 20
4121.578864
 11
5779.269483
 21
4121.578864
  0
ENDBLK
  8
001
  0
BLOCK
  8
001
  2
*D3
 70
     1
 10
0.0
 20
0.0
  0
LINE
  8
001
 62
     4
 10
6884.269483
 20
4066.452541
 11
6884.269483
 21
4146.127863
  0
LINE
  8
001
 62
     4
 10
6904.269483
 20
4066.452541
 11
6904.269483
 21
4146.127863
  0
LINE
  8
001
 62
     4
 10
6884.269483
 20
4141.127863
 11
6904.269483
 21
4141.127863
  0
INSERT
  8
001
  6
BYBLOCK
 62
     4
  2
ARROW
 10
6884.269483
 20
4141.127863
 50
180.0
  0
INSERT
  8
001
  6
BYBLOCK
 62
     4
  2
ARROW
 10
6904.269483
 20
4141.127863
  0
TEXT
  8
001
 62
     4
 10
6829.269483
 20
4146.127863
 40
20.0
  1
20
 41
1.090909
  0
POINT
  8
001
 62
     4
 10
6884.269483
 20
4061.452541
  0
POINT
  8
001
 62
     4
 10
6904.269483
 20
4061.452541
  0
POINT
  8
001
 62
     4
 10
6904.269483
 20
4141.127863
  0
LINE
  8
001
 62
     4
 10
6884.269483
 20
4141.127863
 11
6829.269483
 21
4141.127863
  0
LINE
  8
001
 62
     4
 10
6904.269483
 20
4141.127863
 11
6919.269483
 21
4141.127863
  0
ENDBLK
  8
001
  0
BLOCK
  8
001
  2
*D4
 70
     1
 10
0.0
 20
0.0
  0
LINE
  8
001
 62
     4
 10
6909.269483
 20
4582.463629
 11
6960.364062
 21
4582.463629
  0
LINE
  8
001
 62
     4
 10
6955.364062
 20
4555.463629
 11
6955.364062
 21
4582.463629
  0
INSERT
  8
001
  6
BYBLOCK
 62
     4
  2
ARROW
 10
6955.364062
 20
4582.463629
 50
90.0
  0
TEXT
  8
001
 62
     4
 10
6950.364062
 20
4597.463629
 40
20.0
  1
27
 50
90.000003
  0
POINT
  8
001
 62
     4
 10
6901.148689
 20
4555.463629
  0
POINT
  8
001
 62
     4
 10
6904.269483
 20
4582.463629
  0
POINT
  8
001
 62
     4
 10
6955.364062
 20
4582.463629
  0
LINE
  8
001
 62
     4
 10
6955.364062
 20
4555.463629
 11
6955.364062
 21
4540.463629
  0
LINE
  8
001
 62
     4
 10
6955.364062
 20
4582.463629
 11
6955.364062
 21
4637.463629
  0
ENDBLK
  8
001
  0
BLOCK
  8
001
  2
*D5
 70
     1
 10
0.0
 20
0.0
  0
LINE
  8
001
 62
     4
 10
6906.148689
 20
4390.463629
 11
6960.364062
 21
4390.463629
  0
LINE
  8
001
 62
     4
 10
6906.148689
 20
4555.463629
 11
6960.364062
 21
4555.463629
  0
LINE
  8
001
 62
     4
 10
6955.364062
 20
4390.463629
 11
6955.364062
 21
4555.463629
  0
INSERT
  8
001
  6
BYBLOCK
 62
     4
  2
ARROW
 10
6955.364062
 20
4390.463629
 50
90.0
  0
INSERT
  8
001
  6
BYBLOCK
 62
     4
  2
ARROW
 10
6955.364062
 20
4555.463629
 50
270.0
  0
TEXT
  8
001
 62
     4
 10
6950.364062
 20
4442.963629
 40
20.0
  1
165
 50
90.000003
 41
1.125
  0
POINT
  8
001
 62
     4
 10
6901.148689
 20
4390.463629
  0
POINT
  8
001
 62
     4
 10
6901.148689
 20
4555.463629
  0
POINT
  8
001
 62
     4
 10
6955.364062
 20
4555.463629
  0
ENDBLK
  8
001
  0
BLOCK
  8
001
  2
*D6
 70
     1
 10
0.0
 20
0.0
  0
LINE
  8
001
 62
     4
 10
6909.269483
 20
4347.963629
 11
7009.888183
 21
4347.963629
  0
LINE
  8
001
 62
     4
 10
6909.269483
 20
4582.463629
 11
7009.888183
 21
4582.463629
  0
LINE
  8
001
 62
     4
 10
7004.888183
 20
4347.963629
 11
7004.888183
 21
4582.463629
  0
INSERT
  8
001
  6
BYBLOCK
 62
     4
  2
ARROW
 10
7004.888183
 20
4347.963629
 50
90.0
  0
INSERT
  8
001
  6
BYBLOCK
 62
     4
  2
ARROW
 10
7004.888183
 20
4582.463629
 50
270.0
  0
TEXT
  8
001
 62
     4
 10
6999.888183
 20
4415.213629
 40
20.0
  1
234.5
 50
90.000003
 41
1.153846
  0
POINT
  8
001
 62
     4
 10
6904.269483
 20
4347.963629
  0
POINT
  8
001
 62
     4
 10
6904.269483
 20
4582.463629
  0
POINT
  8
001
 62
     4
 10
7004.888183
 20
4582.463629
  0
ENDBLK
  8
001
  0
BLOCK
  8
001
  2
*D7
 70
     1
 10
0.0
 20
0.0
  0
LINE
  8
001
 62
     4
 10
5704.269483
 20
3556.452541
 11
5704.269483
 21
3447.074031
  0
LINE
  8
001
 62
     4
 10
6904.269483
 20
3556.452541
 11
6904.269483
 21
3447.074031
  0
LINE
  8
001
 62
     4
 10
5704.269483
 20
3452.074031
 11
6904.269483
 21
3452.074031
  0
INSERT
  8
001
  6
BYBLOCK
 62
     4
  2
ARROW
 10
5704.269483
 20
3452.074031
  0
INSERT
  8
001
  6
BYBLOCK
 62
     4
  2
ARROW
 10
6904.269483
 20
3452.074031
 50
180.0
  0
TEXT
  8
001
 62
     4
 10
6184.269483
 20
3457.074031
 40
20.0
  1
600,900,1200
 41
1.285715
  0
POINT
  8
001
 62
     4
 10
5704.269483
 20
3561.452541
  0
POINT
  8
001
 62
     4
 10
6904.269483
 20
3561.452541
  0
POINT
  8
001
 62
     4
 10
6904.269483
 20
3452.074031
  0
ENDBLK
  8
001
  0
BLOCK
  8
001
  2
*D8
 70
     1
 10
0.0
 20
0.0
  0
LINE
  8
001
 62
     4
 10
7498.901944
 20
3561.452541
 11
7601.88289
 21
3561.452541
  0
LINE
  8
001
 62
     4
 10
7498.901944
 20
4061.452541
 11
7601.88289
 21
4061.452541
  0
LINE
  8
001
 62
     4
 10
7596.88289
 20
3561.452541
 11
7596.88289
 21
4061.452541
  0
INSERT
  8
001
  6
BYBLOCK
 62
     4
  2
ARROW
 10
7596.88289
 20
3561.452541
 50
90.0
  0
INSERT
  8
001
  6
BYBLOCK
 62
     4
  2
ARROW
 10
7596.88289
 20
4061.452541
 50
270.0
  0
TEXT
  8
001
 62
     4
 10
7591.88289
 20
3781.452541
 40
20.0
  1
500
 50
90.000003
 41
1.125
  0
POINT
  8
001
 62
     4
 10
7493.901944
 20
3561.452541
  0
POINT
  8
001
 62
     4
 10
7493.901944
 20
4061.452541
  0
POINT
  8
001
 62
     4
 10
7596.88289
 20
4061.452541
  0
ENDBLK
  8
001
  0
BLOCK
  8
001
  2
*D9
 70
     1
 10
0.0
 20
0.0
  0
LINE
  8
001
 62
     4
 10
7551.88289
 20
4008.952541
 11
7551.88289
 21
4061.452541
  0
INSERT
  8
001
  6
BYBLOCK
 62
     4
  2
ARROW
 10
7551.88289
 20
4061.452541
 50
90.0
  0
TEXT
  8
001
 62
     4
 10
7546.88289
 20
4076.452541
 40
20.0
  1
52.5
 50
90.000003
 41
1.2
  0
POINT
  8
001
 62
     4
 10
7508.250884
 20
4008.952541
  0
POINT
  8
001
 62
     4
 10
7493.901944
 20
4061.452541
  0
POINT
  8
001
 62
     4
 10
7551.88289
 20
4061.452541
  0
LINE
  8
001
 62
     4
 10
7551.88289
 20
4008.952541
 11
7551.88289
 21
3993.952541
  0
LINE
  8
001
 62
     4
 10
7551.88289
 20
4061.452541
 11
7551.88289
 21
4156.452541
  0
ENDBLK
  8
001
  0
BLOCK
  8
001
  2
*D10
 70
     1
 10
0.0
 20
0.0
  0
LINE
  8
001
 62
     4
 10
7513.250884
 20
4008.952541
 11
7556.88289
 21
4008.952541
  0
LINE
  8
001
 62
     4
 10
7551.88289
 20
3613.952541
 11
7551.88289
 21
4008.952541
  0
INSERT
  8
001
  6
BYBLOCK
 62
     4
  2
ARROW
 10
7551.88289
 20
3613.952541
 50
90.0
  0
INSERT
  8
001
  6
BYBLOCK
 62
     4
  2
ARROW
 10
7551.88289
 20
4008.952541
 50
270.0
  0
TEXT
  8
001
 62
     4
 10
7546.88289
 20
3781.452541
 40
20.0
  1
395
 50
90.000003
  0
POINT
  8
001
 62
     4
 10
7506.715353
 20
3613.952541
  0
POINT
  8
001
 62
     4
 10
7508.250884
 20
4008.952541
  0
POINT
  8
001
 62
     4
 10
7551.88289
 20
4008.952541
  0
ENDBLK
  8
001
  0
BLOCK
  8
001
  2
*D11
 70
     1
 10
0.0
 20
0.0
  0
LINE
  8
001
 62
     4
 10
7511.715353
 20
3613.952541
 11
7556.88289
 21
3613.952541
  0
LINE
  8
001
 62
     4
 10
7551.88289
 20
3561.452541
 11
7551.88289
 21
3613.952541
  0
INSERT
  8
001
  6
BYBLOCK
 62
     4
  2
ARROW
 10
7551.88289
 20
3561.452541
 50
270.0
  0
TEXT
  8
001
 62
     4
 10
7546.88289
 20
3466.452541
 40
20.0
  1
52.5
 50
90.000003
 41
1.2
  0
POINT
  8
001
 62
     4
 10
7493.901944
 20
3561.452541
  0
POINT
  8
001
 62
     4
 10
7506.715353
 20
3613.952541
  0
POINT
  8
001
 62
     4
 10
7551.88289
 20
3613.952541
  0
LINE
  8
001
 62
     4
 10
7551.88289
 20
3561.452541
 11
7551.88289
 21
3466.452541
  0
LINE
  8
001
 62
     4
 10
7551.88289
 20
3613.952541
 11
7551.88289
 21
3628.952541
  0
ENDBLK
  8
001
  0
BLOCK
  8
001
  2
*D12
 70
     1
 10
0.0
 20
0.0
  0
LINE
  8
001
 62
     4
 10
7307.901944
 20
4074.529706
 11
7307.901944
 21
4144.75235
  0
LINE
  8
001
 62
     4
 10
7472.901944
 20
4071.352998
 11
7472.901944
 21
4144.75235
  0
LINE
  8
001
 62
     4
 10
7307.901944
 20
4139.75235
 11
7472.901944
 21
4139.75235
  0
INSERT
  8
001
  6
BYBLOCK
 62
     4
  2
ARROW
 10
7307.901944
 20
4139.75235
  0
INSERT
  8
001
  6
BYBLOCK
 62
     4
  2
ARROW
 10
7472.901944
 20
4139.75235
 50
180.0
  0
TEXT
  8
001
 62
     4
 10
7360.401944
 20
4144.75235
 40
20.0
  1
165
 41
1.125
  0
POINT
  8
001
 62
     4
 10
7307.901944
 20
4069.529706
  0
POINT
  8
001
 62
     4
 10
7472.901944
 20
4066.352998
  0
POINT
  8
001
 62
     4
 10
7472.901944
 20
4139.75235
  0
ENDBLK
  8
001
  0
BLOCK
  8
001
  2
*D13
 70
     1
 10
0.0
 20
0.0
  0
LINE
  8
001
 62
     4
 10
7305.720692
 20
3561.452541
 11
7208.645193
 21
3561.452541
  0
LINE
  8
001
 62
     4
 10
7266.401944
 20
3796.452541
 11
7208.645193
 21
3796.452541
  0
LINE
  8
001
 62
     4
 10
7213.645193
 20
3561.452541
 11
7213.645193
 21
3796.452541
  0
INSERT
  8
001
  6
BYBLOCK
 62
     4
  2
ARROW
 10
7213.645193
 20
3561.452541
 50
90.0
  0
INSERT
  8
001
  6
BYBLOCK
 62
     4
  2
ARROW
 10
7213.645193
 20
3796.452541
 50
270.0
  0
TEXT
  8
001
 62
     4
 10
7208.645193
 20
3648.952541
 40
20.0
  1
235
 50
90.000003
  0
POINT
  8
001
 62
     4
 10
7310.720692
 20
3561.452541
  0
POINT
  8
001
 62
     4
 10
7271.401944
 20
3796.452541
  0
POINT
  8
001
 62
     4
 10
7213.645193
 20
3796.452541
  0
ENDBLK
  8
001
  0
ENDSEC
  0
SECTION
  2
ENTITIES
  0
INSERT
  8
001
  6
BYBLOCK
 62
     0
  2
PART0
 10
1207.360527
 20
6361.237245
 41
5.0
 42
5.0
 43
5.0
  0
DIMENSION
  8
001
 62
     4
  2
*D2
 10
5724.269483
 20
4121.578864
 11
5739.269483
 21
4126.578864
 13
5704.269483
 23
4061.452541
 14
5724.269483
 24
4061.452541
  0
DIMENSION
  8
001
 62
     4
  2
*D3
 10
6904.269483
 20
4141.127863
 11
6829.269483
 21
4146.127863
 13
6884.269483
 23
4061.452541
 14
6904.269483
 24
4061.452541
  0
DIMENSION
  8
001
 62
     4
  2
*D4
 10
6955.364062
 20
4582.463629
 11
6950.364062
 21
4597.463629
 13
6901.148689
 23
4555.463629
 14
6904.269483
 24
4582.463629
 50
90.0
  0
DIMENSION
  8
001
 62
     4
  2
*D5
 10
6955.364062
 20
4555.463629
 11
6950.364062
 21
4442.963629
 13
6901.148689
 23
4390.463629
 14
6901.148689
 24
4555.463629
 50
90.0
  0
DIMENSION
  8
001
 62
     4
  2
*D6
 10
7004.888183
 20
4582.463629
 11
6999.888183
 21
4415.213629
 13
6904.269483
 23
4347.963629
 14
6904.269483
 24
4582.463629
 50
90.0
  0
DIMENSION
  8
001
 62
     4
  2
*D7
 10
6904.269483
 20
3452.074031
 11
6184.269483
 21
3457.074031
 13
5704.269483
 23
3561.452541
 14
6904.269483
 24
3561.452541
  0
DIMENSION
  8
001
 62
     4
  2
*D8
 10
7596.88289
 20
4061.452541
 11
7591.88289
 21
3781.452541
 13
7493.901944
 23
3561.452541
 14
7493.901944
 24
4061.452541
 50
90.0
  0
DIMENSION
  8
001
 62
     4
  2
*D9
 10
7551.88289
 20
4061.452541
 11
7546.88289
 21
4076.452541
 13
7508.250884
 23
4008.952541
 14
7493.901944
 24
4061.452541
 50
90.0
  0
DIMENSION
  8
001
 62
     4
  2
*D10
 10
7551.88289
 20
4008.952541
 11
7546.88289
 21
3781.452541
 13
7506.715353
 23
3613.952541
 14
7508.250884
 24
4008.952541
 50
90.0
  0
DIMENSION
  8
001
 62
     4
  2
*D11
 10
7551.88289
 20
3613.952541
 11
7546.88289
 21
3466.452541
 13
7493.901944
 23
3561.452541
 14
7506.715353
 24
3613.952541
 50
90.0
  0
DIMENSION
  8
001
 62
     4
  2
*D12
 10
7472.901944
 20
4139.75235
 11
7360.401944
 21
4144.75235
 13
7307.901944
 23
4069.529706
 14
7472.901944
 24
4066.352998
 50
360.0
  0
DIMENSION
  8
001
 62
     4
  2
*D13
 10
7213.645193
 20
3796.452541
 11
7208.645193
 21
3648.952541
 13
7310.720692
 23
3561.452541
 14
7271.401944
 24
3796.452541
 50
90.0
  0
LINE
  8
001
 10
5704.269483
 20
4061.452541
 11
5724.269483
 21
4061.452541
  0
LINE
  8
001
 10
6884.269483
 20
4061.452541
 11
6904.269483
 21
4061.452541
  0
LINE
  8
001
 10
5704.269483
 20
4582.463629
 11
5704.269483
 21
4347.963629
  0
LINE
  8
001
 10
5724.269483
 20
4582.463629
 11
5724.269483
 21
4347.963629
  0
LINE
  8
001
 10
5704.269483
 20
3561.452541
 11
5724.269483
 21
3561.452541
  0
LINE
  8
001
 10
6884.269483
 20
3561.452541
 11
6904.269483
 21
3561.452541
  0
LINE
  8
001
 10
7310.720692
 20
3561.452541
 11
7493.901944
 21
3561.452541
  0
LINE
  8
001
 10
7310.720692
 20
3563.452541
 11
7493.901944
 21
3563.452541
  0
ARC
  8
001
 10
7493.901944
 20
3567.452541
 40
4.0
 50
270.0
 51
0.0
  0
ARC
  8
001
 10
7493.901944
 20
4055.452541
 40
4.0
 50
0.0
 51
90.0
  0
ARC
  8
001
 10
7271.401944
 20
4055.452541
 40
4.0
 50
90.0
 51
180.0
  0
ARC
  8
001
 10
7311.651944
 20
3567.452541
 40
4.0
 50
180.0
 51
270.0
  0
ARC
  8
001
 10
7493.901944
 20
3567.452541
 40
6.0
 50
270.0
 51
0.0
  0
ARC
  8
001
 10
7493.901944
 20
4055.452541
 40
6.0
 50
0.0
 51
90.0
  0
ARC
  8
001
 10
7271.401944
 20
4055.452541
 40
6.0
 50
90.0
 51
180.0
  0
LINE
  8
001
 10
7397.651944
 20
4057.452541
 11
7397.651944
 21
4059.452541
  0
LINE
  8
001
 10
7397.651944
 20
4057.452541
 11
7367.651944
 21
4057.452541
  0
LINE
  8
001
 10
7367.651944
 20
4059.452541
 11
7367.651944
 21
4061.452541
  0
ARC
  8
001
 10
7367.651944
 20
4061.452541
 40
4.0
 50
221.810315
 51
270.0
  0
ARC
  8
001
 10
7367.651944
 20
4061.452541
 40
2.0
 50
210.0
 51
270.0
  0
LINE
  8
001
 10
7271.401944
 20
4061.452541
 11
7364.187843
 21
4061.452541
  0
LINE
  8
001
 10
7367.651944
 20
4061.452541
 11
7493.901944
 21
4061.452541
  0
LINE
  8
001
 10
7364.187843
 20
4061.452541
 11
7271.401944
 21
4061.452541
  0
LINE
  8
001
 10
7367.651944
 20
4061.452541
 11
7493.901944
 21
4061.452541
  0
LINE
  8
001
 10
7363.179808
 20
4059.452541
 11
7271.401944
 21
4059.452541
  0
LINE
  8
001
 10
7367.651944
 20
4059.452541
 11
7493.901944
 21
4059.452541
  0
ARC
  8
001
 10
7363.179808
 20
4057.452541
 40
2.0
 50
41.810315
 51
90.0
  0
ARC
  8
001
 10
7364.187843
 20
4059.452541
 40
2.0
 50
30.0
 51
90.0
  0
LINE
  8
001
 10
7497.651944
 20
3567.452541
 11
7497.651944
 21
3580.452541
  0
LINE
  8
001
 10
7307.651944
 20
3567.452541
 11
7307.651944
 21
3580.452541
  0
LINE
  8
001
 10
7496.651944
 20
3581.452541
 11
7308.651944
 21
3581.452541
  0
ARC
  8
001
 10
7308.651944
 20
3580.452541
 40
1.0
 50
90.0
 51
180.0
  0
ARC
  8
001
 10
7496.651944
 20
3580.452541
 40
1.0
 50
0.0
 51
90.0
  0
ARC
  8
001
 10
7493.651944
 20
3567.452541
 40
4.0
 50
270.0
 51
0.0
  0
LINE
  8
001
 10
6296.769483
 20
3575.888541
 11
6296.769483
 21
3565.452541
  0
LINE
  8
001
 10
6311.769483
 20
3575.888541
 11
6311.769483
 21
3565.452541
  0
LINE
  8
001
 10
6310.769483
 20
3564.452541
 11
6297.769483
 21
3564.452541
  0
ARC
  8
001
 10
6297.769483
 20
3565.452541
 40
1.0
 50
180.0
 51
270.0
  0
ARC
  8
001
 10
6310.769483
 20
3565.452541
 40
1.0
 50
270.0
 51
0.0
  0
LINE
  8
001
 10
6310.769483
 20
3576.888541
 11
6297.769483
 21
3576.888541
  0
ARC
  8
001
 10
6297.769483
 20
3575.888541
 40
1.0
 50
90.0
 51
180.0
  0
ARC
  8
001
 10
6310.769483
 20
3575.888541
 40
1.0
 50
0.0
 51
90.0
  0
LINE
  8
001
 10
6904.269483
 20
4582.463629
 11
6904.269483
 21
4347.963629
  0
LINE
  8
001
 10
6884.269483
 20
4347.963629
 11
6884.269483
 21
4582.463629
  0
LINE
  8
001
 10
6904.269483
 20
3092.925235
 11
6904.269483
 21
3324.175235
  0
LINE
  8
001
 10
6884.269483
 20
3092.925235
 11
6884.269483
 21
3324.175235
  0
ARC
  8
001
 10
6310.769483
 20
3313.825235
 40
1.0
 50
0.0
 51
90.0
  0
ARC
  8
001
 10
6310.769483
 20
3100.025235
 40
1.0
 50
270.0
 51
0.0
  0
LINE
  8
001
 10
6297.769483
 20
3314.825235
 11
6310.769483
 21
3314.825235
  0
LINE
  8
001
 10
6297.769483
 20
3099.025235
 11
6310.769483
 21
3099.025235
  0
ARC
  8
001
 10
6297.769483
 20
3313.825235
 40
1.0
 50
90.0
 51
180.0
  0
ARC
  8
001
 10
6297.769483
 20
3100.025235
 40
1.0
 50
180.0
 51
270.0
  0
LINE
  8
001
 10
6311.769483
 20
3312.525235
 11
6311.769483
 21
3313.825235
  0
LINE
  8
001
 10
6296.769483
 20
3312.525235
 11
6296.769483
 21
3313.825235
  0
LINE
  8
001
 10
6311.769483
 20
3301.925235
 11
6311.769483
 21
3271.925235
  0
LINE
  8
001
 10
6296.769483
 20
3301.925235
 11
6296.769483
 21
3271.925235
  0
LINE
  8
001
 10
6311.769483
 20
3231.925235
 11
6311.769483
 21
3261.925235
  0
LINE
  8
001
 10
6296.769483
 20
3231.925235
 11
6296.769483
 21
3261.925235
  0
LINE
  8
001
 10
6311.769483
 20
3191.925235
 11
6311.769483
 21
3221.925235
  0
LINE
  8
001
 10
6296.769483
 20
3191.925235
 11
6296.769483
 21
3221.925235
  0
LINE
  8
001
 10
6311.769483
 20
3151.925235
 11
6311.769483
 21
3181.925235
  0
LINE
  8
001
 10
6296.769483
 20
3151.925235
 11
6296.769483
 21
3181.925235
  0
LINE
  8
001
 10
6311.769483
 20
3100.025235
 11
6311.769483
 21
3101.925235
  0
LINE
  8
001
 10
6311.769483
 20
3111.925235
 11
6311.769483
 21
3141.925235
  0
LINE
  8
001
 10
6296.769483
 20
3100.025235
 11
6296.769483
 21
3101.925235
  0
LINE
  8
001
 10
6296.769483
 20
3111.925235
 11
6296.769483
 21
3141.925235
  0
LINE
  8
001
 10
6296.769483
 20
3312.525235
 11
6296.769483
 21
3311.925235
  0
LINE
  8
001
 10
6311.769483
 20
3312.525235
 11
6311.769483
 21
3311.925235
  0
LINE
  8
001
 10
6296.769483
 20
3311.925235
 11
6296.769483
 21
3301.925235
  0
LINE
  8
001
 10
6311.769483
 20
3311.925235
 11
6311.769483
 21
3301.925235
  0
LINE
  8
001
 10
6296.769483
 20
3271.925235
 11
6296.769483
 21
3261.931997
  0
LINE
  8
001
 10
6311.769483
 20
3271.925235
 11
6311.769483
 21
3261.925235
  0
LINE
  8
001
 10
6296.769483
 20
3231.925235
 11
6296.769483
 21
3221.925235
  0
LINE
  8
001
 10
6311.769483
 20
3231.925235
 11
6311.769483
 21
3221.925235
  0
LINE
  8
001
 10
6311.769483
 20
3191.925235
 11
6311.769483
 21
3181.925235
  0
LINE
  8
001
 10
6296.769483
 20
3191.925235
 11
6296.769483
 21
3181.925235
  0
LINE
  8
001
 10
6296.769483
 20
3151.925235
 11
6296.769483
 21
3141.925235
  0
LINE
  8
001
 10
6311.769483
 20
3151.925235
 11
6311.769483
 21
3141.925235
  0
LINE
  8
001
 10
6296.769483
 20
3111.925235
 11
6296.769483
 21
3101.925235
  0
LINE
  8
001
 10
6311.769483
 20
3111.925235
 11
6311.769483
 21
3101.925235
  0
LINE
  8
001
 10
5704.269483
 20
3320.872835
 11
5704.269483
 21
3086.372835
  0
LINE
  8
001
 10
5724.269483
 20
3320.872835
 11
5724.269483
 21
3086.372835
  0
LINE
  8
001
 10
6884.269483
 20
4450.213629
 11
6904.269483
 21
4450.213629
  0
LINE
  8
001
 10
5704.269483
 20
4450.213629
 11
5724.269483
 21
4450.213629
  0
LINE
  8
001
 10
7721.914717
 20
3776.638707
 11
7721.914717
 21
4055.452541
  0
LINE
  8
001
 10
7956.414717
 20
4055.452541
 11
7956.414717
 21
3567.452541
  0
LINE
  8
001
 10
7723.914717
 20
3776.824873
 11
7723.914717
 21
4055.452541
  0
LINE
  8
001
 10
7954.414717
 20
4055.452541
 11
7954.414717
 21
3567.452541
  0
ARC
  8
001
 10
7950.414717
 20
3567.452541
 40
4.0
 50
270.0
 51
0.0
  0
ARC
  8
001
 10
7950.414717
 20
4055.452541
 40
4.0
 50
0.0
 51
90.0
  0
ARC
  8
001
 10
7727.914717
 20
4055.452541
 40
4.0
 50
90.0
 51
180.0
  0
ARC
  8
001
 10
7950.414717
 20
3567.452541
 40
6.0
 50
270.0
 51
0.0
  0
ARC
  8
001
 10
7950.414717
 20
4055.452541
 40
6.0
 50
0.0
 51
90.0
  0
ARC
  8
001
 10
7727.914717
 20
4055.452541
 40
6.0
 50
90.0
 51
180.0
  0
LINE
  8
001
 10
7854.164717
 20
4057.452541
 11
7854.164717
 21
4059.452541
  0
LINE
  8
001
 10
7854.164717
 20
4057.452541
 11
7824.164717
 21
4057.452541
  0
LINE
  8
001
 10
7824.164717
 20
4059.452541
 11
7824.164717
 21
4061.452541
  0
ARC
  8
001
 10
7824.164717
 20
4061.452541
 40
4.0
 50
221.810315
 51
270.0
  0
ARC
  8
001
 10
7824.164717
 20
4061.452541
 40
2.0
 50
210.0
 51
270.0
  0
LINE
  8
001
 10
7727.914717
 20
4061.452541
 11
7820.700615
 21
4061.452541
  0
LINE
  8
001
 10
7824.164717
 20
4061.452541
 11
7950.664717
 21
4061.452541
  0
LINE
  8
001
 10
7820.700615
 20
4061.452541
 11
7727.914717
 21
4061.452541
  0
LINE
  8
001
 10
7824.164717
 20
4061.452541
 11
7950.414717
 21
4061.452541
  0
LINE
  8
001
 10
7819.692581
 20
4059.452541
 11
7727.914717
 21
4059.452541
  0
LINE
  8
001
 10
7824.164717
 20
4059.452541
 11
7950.414717
 21
4059.452541
  0
ARC
  8
001
 10
7819.692581
 20
4057.452541
 40
2.0
 50
41.810315
 51
90.0
  0
ARC
  8
001
 10
7820.700615
 20
4059.452541
 40
2.0
 50
30.0
 51
90.0
  0
CIRCLE
  8
001
 10
7739.164717
 20
3806.452541
 40
5.0
  0
CIRCLE
  8
001
 10
7739.164717
 20
3806.452541
 40
4.6
  0
ARC
  8
001
 10
7745.214717
 20
3808.688609
 40
1.45
 50
20.284212
 51
200.284196
  0
ARC
  8
001
 10
7733.114717
 20
3808.688609
 40
1.45
 50
339.715788
 51
159.715771
  0
CIRCLE
  8
001
 10
7779.164717
 20
3806.452541
 40
5.0
  0
CIRCLE
  8
001
 10
7779.164717
 20
3806.452541
 40
4.6
  0
ARC
  8
001
 10
7785.214717
 20
3808.688609
 40
1.45
 50
20.284212
 51
200.284196
  0
ARC
  8
001
 10
7773.114717
 20
3808.688609
 40
1.45
 50
339.715788
 51
159.715771
  0
CIRCLE
  8
001
 10
7819.164717
 20
3806.452541
 40
5.0
  0
CIRCLE
  8
001
 10
7819.164717
 20
3806.452541
 40
4.6
  0
ARC
  8
001
 10
7825.214717
 20
3808.688609
 40
1.45
 50
20.284212
 51
200.284196
  0
ARC
  8
001
 10
7813.114717
 20
3808.688609
 40
1.45
 50
339.715788
 51
159.715771
  0
CIRCLE
  8
001
 10
7859.164717
 20
3806.452541
 40
5.0
  0
CIRCLE
  8
001
 10
7859.164717
 20
3806.452541
 40
4.6
  0
ARC
  8
001
 10
7865.214717
 20
3808.688609
 40
1.45
 50
20.284212
 51
200.284196
  0
ARC
  8
001
 10
7853.114717
 20
3808.688609
 40
1.45
 50
339.715788
 51
159.715771
  0
CIRCLE
  8
001
 10
7899.164717
 20
3806.452541
 40
5.0
  0
CIRCLE
  8
001
 10
7899.164717
 20
3806.452541
 40
4.6
  0
ARC
  8
001
 10
7905.214717
 20
3808.688609
 40
1.45
 50
20.284212
 51
200.284196
  0
ARC
  8
001
 10
7893.114717
 20
3808.688609
 40
1.45
 50
339.715788
 51
159.715771
  0
CIRCLE
  8
001
 10
7939.164717
 20
3806.452541
 40
5.0
  0
CIRCLE
  8
001
 10
7939.164717
 20
3806.452541
 40
4.6
  0
ARC
  8
001
 10
7945.214717
 20
3808.688609
 40
1.45
 50
20.284212
 51
200.284196
  0
ARC
  8
001
 10
7933.114717
 20
3808.688609
 40
1.45
 50
339.715788
 51
159.715771
  0
LINE
  8
001
 10
7731.264717
 20
3806.452541
 11
7731.264717
 21
3797.452541
  0
LINE
  8
001
 10
7947.064717
 20
3806.452541
 11
7947.064717
 21
3797.452541
  0
LINE
  8
001
 10
7748.008358
 20
3806.452541
 11
7770.321075
 21
3806.452541
  0
LINE
  8
001
 10
7788.008358
 20
3806.452541
 11
7810.321075
 21
3806.452541
  0
LINE
  8
001
 10
7828.008358
 20
3806.452541
 11
7850.321075
 21
3806.452541
  0
LINE
  8
001
 10
7868.008358
 20
3806.452541
 11
7890.321075
 21
3806.452541
  0
LINE
  8
001
 10
7908.008358
 20
3806.452541
 11
7930.321075
 21
3806.452541
  0
LINE
  8
001
  6
CENTER
 62
     4
 10
7819.164717
 20
3791.117132
 11
7819.164717
 21
3815.390471
  0
LINE
  8
001
  6
CENTER
 62
     4
 10
7859.164717
 20
3791.117132
 11
7859.164717
 21
3815.390471
  0
LINE
  8
001
  6
CENTER
 62
     4
 10
7899.164717
 20
3791.117132
 11
7899.164717
 21
3815.390471
  0
LINE
  8
001
  6
CENTER
 62
     4
 10
7939.164717
 20
3791.117132
 11
7939.164717
 21
3815.390471
  0
LINE
  8
001
  6
CENTER
 62
     4
 10
7779.164717
 20
3791.117132
 11
7779.164717
 21
3815.390471
  0
LINE
  8
001
  6
CENTER
 62
     4
 10
7739.164717
 20
3791.117132
 11
7739.164717
 21
3815.390471
  0
ARC
  8
001
 10
7739.164717
 20
3806.452541
 40
7.9
 50
159.715788
 51
180.0
  0
ARC
  8
001
 10
7739.164717
 20
3806.452541
 40
7.9
 50
325.819784
 51
20.284212
  0
LINE
  8
001
 10
7771.801973
 20
3800.452541
 11
7746.527461
 21
3800.452541
  0
LINE
  8
001
 10
7811.801973
 20
3800.452541
 11
7786.527461
 21
3800.452541
  0
LINE
  8
001
 10
7851.801973
 20
3800.452541
 11
7826.527461
 21
3800.452541
  0
LINE
  8
001
 10
7891.801973
 20
3800.452541
 11
7866.527461
 21
3800.452541
  0
LINE
  8
001
 10
7931.801973
 20
3800.452541
 11
7906.527461
 21
3800.452541
  0
ARC
  8
001
 10
7939.164717
 20
3806.452541
 40
7.9
 50
159.715788
 51
214.180216
  0
ARC
  8
001
 10
7939.164717
 20
3806.452541
 40
7.9
 50
360.0
 51
20.284212
  0
ARC
  8
001
 10
7746.527461
 20
3801.452541
 40
1.0
 50
145.819784
 51
270.0
  0
ARC
  8
001
 10
7779.164717
 20
3806.452541
 40
7.9
 50
159.715788
 51
214.180216
  0
ARC
  8
001
 10
7779.164717
 20
3806.452541
 40
7.9
 50
325.819784
 51
20.284212
  0
ARC
  8
001
 10
7819.164717
 20
3806.452541
 40
7.9
 50
159.715788
 51
214.180216
  0
ARC
  8
001
 10
7819.164717
 20
3806.452541
 40
7.9
 50
325.819784
 51
20.284212
  0
ARC
  8
001
 10
7859.164717
 20
3806.452541
 40
7.9
 50
159.715788
 51
214.180216
  0
ARC
  8
001
 10
7859.164717
 20
3806.452541
 40
7.9
 50
325.819784
 51
20.284212
  0
ARC
  8
001
 10
7899.164717
 20
3806.452541
 40
7.9
 50
159.715788
 51
214.180216
  0
ARC
  8
001
 10
7899.164717
 20
3806.452541
 40
7.9
 50
325.819784
 51
20.284212
  0
ARC
  8
001
 10
7771.801973
 20
3801.452541
 40
1.0
 50
270.0
 51
34.180216
  0
ARC
  8
001
 10
7786.527461
 20
3801.452541
 40
1.0
 50
145.819784
 51
270.0
  0
ARC
  8
001
 10
7811.801973
 20
3801.452541
 40
1.0
 50
270.0
 51
34.180216
  0
ARC
  8
001
 10
7826.527461
 20
3801.452541
 40
1.0
 50
145.819784
 51
270.0
  0
ARC
  8
001
 10
7851.801973
 20
3801.452541
 40
1.0
 50
270.0
 51
34.180216
  0
ARC
  8
001
 10
7866.527461
 20
3801.452541
 40
1.0
 50
145.819784
 51
270.0
  0
ARC
  8
001
 10
7891.801973
 20
3801.452541
 40
1.0
 50
270.0
 51
34.180216
  0
ARC
  8
001
 10
7906.527461
 20
3801.452541
 40
1.0
 50
145.819784
 51
270.0
  0
ARC
  8
001
 10
7931.801973
 20
3801.452541
 40
1.0
 50
270.0
 51
34.180216
  0
ARC
  8
001
 10
7748.008358
 20
3807.452541
 40
1.0
 50
186.451351
 51
270.0
  0
ARC
  8
001
 10
7770.321075
 20
3807.452541
 40
1.0
 50
270.0
 51
353.548649
  0
ARC
  8
001
 10
7788.008358
 20
3807.452541
 40
1.0
 50
186.451351
 51
270.0
  0
ARC
  8
001
 10
7810.321075
 20
3807.452541
 40
1.0
 50
270.0
 51
353.548649
  0
ARC
  8
001
 10
7828.008358
 20
3807.452541
 40
1.0
 50
186.451351
 51
270.0
  0
ARC
  8
001
 10
7850.321075
 20
3807.452541
 40
1.0
 50
270.0
 51
353.548649
  0
ARC
  8
001
 10
7868.008358
 20
3807.452541
 40
1.0
 50
186.451351
 51
270.0
  0
ARC
  8
001
 10
7890.321075
 20
3807.452541
 40
1.0
 50
270.0
 51
353.548649
  0
ARC
  8
001
 10
7908.008358
 20
3807.452541
 40
1.0
 50
186.451351
 51
270.0
  0
ARC
  8
001
 10
7930.321075
 20
3807.452541
 40
1.0
 50
270.0
 51
353.548649
  0
ARC
  8
001
 10
7946.064717
 20
3797.452541
 40
1.0
 50
270.0
 51
0.0
  0
ARC
  8
001
 10
7732.264717
 20
3797.452541
 40
1.0
 50
180.0
 51
270.0
  0
LINE
  8
001
 10
6891.019483
 20
4392.713629
 11
6897.519483
 21
4392.713629
  0
LINE
  8
001
 10
6891.019483
 20
4388.213629
 11
6897.519483
 21
4388.213629
  0
ARC
  8
001
 10
6891.019483
 20
4390.463629
 40
2.25
 50
90.0
 51
270.0
  0
ARC
  8
001
 10
6897.519483
 20
4390.463629
 40
2.25
 50
270.0
 51
90.0
  0
LINE
  8
001
  6
CENTER
 62
     4
 10
6897.519483
 20
4394.989836
 11
6897.519483
 21
4384.889498
  0
LINE
  8
001
  6
CENTER
 62
     4
 10
6891.019483
 20
4394.826927
 11
6891.019483
 21
4384.400773
  0
LINE
  8
001
  6
CENTER
 62
     4
 10
6901.148689
 20
4390.463629
 11
6886.812759
 21
4390.463629
  0
LINE
  8
001
 10
6891.019483
 20
4557.713629
 11
6897.519483
 21
4557.713629
  0
LINE
  8
001
 10
6891.019483
 20
4553.213629
 11
6897.519483
 21
4553.213629
  0
ARC
  8
001
 10
6891.019483
 20
4555.463629
 40
2.25
 50
90.0
 51
270.0
  0
ARC
  8
001
 10
6897.519483
 20
4555.463629
 40
2.25
 50
270.0
 51
90.0
  0
LINE
  8
001
  6
CENTER
 62
     4
 10
6897.519483
 20
4559.989836
 11
6897.519483
 21
4549.889498
  0
LINE
  8
001
  6
CENTER
 62
     4
 10
6891.019483
 20
4559.826927
 11
6891.019483
 21
4549.400773
  0
LINE
  8
001
  6
CENTER
 62
     4
 10
6901.148689
 20
4555.463629
 11
6886.812759
 21
4555.463629
  0
LINE
  8
001
 10
5711.019483
 20
4392.713629
 11
5717.519483
 21
4392.713629
  0
LINE
  8
001
 10
5711.019483
 20
4388.213629
 11
5717.519483
 21
4388.213629
  0
ARC
  8
001
 10
5711.019483
 20
4390.463629
 40
2.25
 50
90.0
 51
270.0
  0
ARC
  8
001
 10
5717.519483
 20
4390.463629
 40
2.25
 50
270.0
 51
90.0
  0
LINE
  8
001
  6
CENTER
 62
     4
 10
5717.519483
 20
4394.989836
 11
5717.519483
 21
4384.889498
  0
LINE
  8
001
  6
CENTER
 62
     4
 10
5711.019483
 20
4394.826927
 11
5711.019483
 21
4384.400773
  0
LINE
  8
001
  6
CENTER
 62
     4
 10
5721.148689
 20
4390.463629
 11
5706.812759
 21
4390.463629
  0
LINE
  8
001
 10
5711.019483
 20
4557.713629
 11
5717.519483
 21
4557.713629
  0
LINE
  8
001
 10
5711.019483
 20
4553.213629
 11
5717.519483
 21
4553.213629
  0
ARC
  8
001
 10
5711.019483
 20
4555.463629
 40
2.25
 50
90.0
 51
270.0
  0
ARC
  8
001
 10
5717.519483
 20
4555.463629
 40
2.25
 50
270.0
 51
90.0
  0
LINE
  8
001
  6
CENTER
 62
     4
 10
5717.519483
 20
4559.989836
 11
5717.519483
 21
4549.889498
  0
LINE
  8
001
  6
CENTER
 62
     4
 10
5711.019483
 20
4559.826927
 11
5711.019483
 21
4549.400773
  0
LINE
  8
001
  6
CENTER
 62
     4
 10
5721.148689
 20
4555.463629
 11
5706.812759
 21
4555.463629
  0
LINE
  8
001
  6
CENTER
 62
     4
 10
7950.414717
 20
4008.952541
 11
7960.132859
 21
4008.952541
  0
LINE
  8
001
  6
CENTER
 62
     4
 10
7950.414717
 20
3613.952541
 11
7963.228126
 21
3613.952541
  0
LINE
  8
001
  6
CENTER
 62
     4
 10
7508.250884
 20
4008.952541
 11
7489.353641
 21
4008.952541
  0
LINE
  8
001
  6
CENTER
 62
     4
 10
7729.541778
 20
3806.452541
 11
7748.683502
 21
3806.452541
  0
LINE
  8
001
  6
CENTER
 62
     4
 10
7769.541778
 20
3806.452541
 11
7788.683502
 21
3806.452541
  0
LINE
  8
001
  6
CENTER
 62
     4
 10
7809.541778
 20
3806.452541
 11
7828.683502
 21
3806.452541
  0
LINE
  8
001
  6
CENTER
 62
     4
 10
7849.541778
 20
3806.452541
 11
7868.683502
 21
3806.452541
  0
LINE
  8
001
  6
CENTER
 62
     4
 10
7889.541778
 20
3806.452541
 11
7908.683502
 21
3806.452541
  0
LINE
  8
001
  6
CENTER
 62
     4
 10
7929.541778
 20
3806.452541
 11
7948.683502
 21
3806.452541
  0
LINE
  8
001
  6
CENTER
 62
     4
 10
6894.269483
 20
4562.122209
 11
6894.269483
 21
4545.994236
  0
LINE
  8
001
  6
CENTER
 62
     4
 10
6894.269483
 20
4398.899353
 11
6894.269483
 21
4380.816496
  0
LINE
  8
001
  6
CENTER
 62
     4
 10
5714.269483
 20
4562.122209
 11
5714.269483
 21
4545.994236
  0
LINE
  8
001
  6
CENTER
 62
     4
 10
5714.269483
 20
4398.899353
 11
5714.269483
 21
4380.816496
  0
LINE
  8
001
  6
DASHED
 10
5704.269483
 20
4480.213629
 11
5724.269483
 21
4480.213629
  0
LINE
  8
001
  6
DASHED
 10
6884.269483
 20
4480.213629
 11
6904.269483
 21
4480.213629
  0
CIRCLE
  8
001
 10
6894.269483
 20
3241.925235
 40
3.25
  0
LINE
  8
001
  6
CENTER
 62
     4
 10
6889.175233
 20
3241.925235
 11
6899.764281
 21
3241.925235
  0
LINE
  8
001
  6
CENTER
 62
     4
 10
6900.497376
 20
3131.925235
 11
6888.116345
 21
3131.925235
  0
LINE
  8
001
  6
CENTER
 62
     4
 10
6894.269483
 20
3249.135323
 11
6894.269483
 21
3234.636463
  0
LINE
  8
001
  6
CENTER
 62
     4
 10
6894.269483
 20
3138.709519
 11
6894.269483
 21
3123.721957
  0
CIRCLE
  8
001
 10
6894.269483
 20
3241.925235
 40
3.0
  0
CIRCLE
  8
001
 10
6894.269483
 20
3131.925235
 40
3.0
  0
LINE
  8
001
 10
6904.269483
 20
4582.463629
 11
6884.269483
 21
4582.463629
  0
LINE
  8
001
 10
6904.269483
 20
4347.963629
 11
6884.269483
 21
4347.963629
  0
LINE
  8
001
 10
5704.269483
 20
4582.463629
 11
5724.269483
 21
4582.463629
  0
LINE
  8
001
 10
5724.269483
 20
4347.963629
 11
5704.269483
 21
4347.963629
  0
LINE
  8
001
 10
6904.269483
 20
3324.175235
 11
6884.269483
 21
3324.175235
  0
LINE
  8
001
 10
5724.269483
 20
3086.372835
 11
5704.269483
 21
3086.372835
  0
LINE
  8
001
 10
5704.269483
 20
3320.872835
 11
5724.269483
 21
3320.872835
  0
LINE
  8
001
  6
CENTER
 62
     4
 10
7929.414717
 20
4055.452541
 11
7929.414717
 21
4066.352998
  0
LINE
  8
001
  6
CENTER
 62
     4
 10
7764.414717
 20
4055.452541
 11
7764.414717
 21
4069.529706
  0
LINE
  8
001
  6
CENTER
 62
     4
 10
7307.901944
 20
4055.452541
 11
7307.901944
 21
4069.529706
  0
LINE
  8
001
  6
CENTER
 62
     4
 10
7472.901944
 20
4055.452541
 11
7472.901944
 21
4066.352998
  0
TEXT
  8
001
 10
7152.360527
 20
3118.737245
 40
20.0
  1
1
 41
1.499999
  0
TEXT
  8
001
 10
7152.360527
 20
3153.73727
 40
20.0
  1
2
  0
TEXT
  8
001
 10
7152.360527
 20
3188.73723
 40
20.0
  1
3
  0
TEXT
  8
001
 10
7152.360527
 20
3223.737235
 40
20.0
  1
4
  0
TEXT
  8
001
 10
7152.360527
 20
3258.737215
 40
20.0
  1
5
  0
TEXT
  8
001
 10
7152.360527
 20
3293.73722
 40
20.0
  1
6
  0
TEXT
  8
001
 10
7152.360527
 20
3328.737225
 40
20.0
  1
7
  0
TEXT
  8
001
 10
7189.860527
 20
3118.737245
 40
20.0
  1
パイプ受枠（Ａ）
 41
0.833333
  0
TEXT
  8
001
 10
7189.860527
 20
3188.73723
 40
20.0
  1
中間押え（Ａ）
 41
0.833333
  0
TEXT
  8
001
 10
7189.860527
 20
3223.737235
 40
20.0
  1
パイプ
 41
0.833333
  0
TEXT
  8
001
 10
7189.860527
 20
3258.737215
 40
20.0
  1
スプリング
 41
0.833333
  0
TEXT
  8
001
 10
7189.860527
 20
3293.73722
 40
20.0
  1
ＨＳ－くぼみ先
 41
0.833333
  0
TEXT
  8
001
 10
7644.860527
 20
3153.73727
 40
20.0
  1
スポット組立後電解研磨
 41
0.833333
  0
TEXT
  8
001
 10
7644.860527
 20
3293.73722
 40
20.0
  1
MFBP
  0
TEXT
  8
001
 10
7249.860102
 20
2957.487245
 40
20.0
  1
赤坂
 41
0.833333
  0
TEXT
  8
001
 10
7329.860527
 20
2957.487245
 40
20.0
  1
赤坂
 41
0.833333
  0
LINE
  8
001
 10
7447.245634
 20
4525.006932
 11
7357.245634
 21
4525.006932
  0
LINE
  8
001
 10
7352.245634
 20
4440.006932
 11
7352.245634
 21
4520.006932
  0
LINE
  8
001
 10
7452.245634
 20
4520.006932
 11
7452.245634
 21
4440.006932
  0
ARC
  8
001
 10
7357.245634
 20
4520.006932
 40
5.0
 50
90.0
 51
180.0
  0
ARC
  8
001
 10
7357.245634
 20
4440.006932
 40
5.0
 50
180.0
 51
270.0
  0
ARC
  8
001
 10
7447.245634
 20
4440.006932
 40
5.0
 50
270.0
 51
0.0
  0
ARC
  8
001
 10
7447.245634
 20
4520.006932
 40
5.0
 50
0.0
 51
90.0
  0
LINE
  8
001
 10
7363.495634
 20
4455.006932
 11
7357.245634
 21
4455.006932
  0
ARC
  8
001
 10
7373.495634
 20
4520.006932
 40
5.0
 50
90.0
 51
180.0
  0
ARC
  8
001
 10
7363.495634
 20
4460.006932
 40
5.0
 50
270.0
 51
0.0
  0
ARC
  8
001
 10
7357.245634
 20
4450.006932
 40
5.0
 50
90.0
 51
180.0
  0
LINE
  8
001
 10
7385.995634
 20
4435.006932
 11
7385.995634
 21
4463.506932
  0
LINE
  8
001
 10
7418.495634
 20
4435.006932
 11
7418.495634
 21
4463.506932
  0
LINE
  8
001
 10
7368.495634
 20
4460.006932
 11
7368.495634
 21
4520.006932
  0
LINE
  8
001
 10
7452.245634
 20
4435.006932
 11
7447.245634
 21
4435.006932
  0
LINE
  8
001
 10
7352.245634
 20
4435.006932
 11
7357.245634
 21
4435.006932
  0
LINE
  8
001
 10
7352.245634
 20
4435.006932
 11
7352.245634
 21
4425.006932
  0
LINE
  8
001
 10
7452.245634
 20
4425.006932
 11
7452.245634
 21
4435.006932
  0
LINE
  8
001
 10
7352.245634
 20
4435.006932
 11
7352.245634
 21
4440.006932
  0
LINE
  8
001
 10
7452.245634
 20
4435.006932
 11
7452.245634
 21
4440.006932
  0
LINE
  8
001
  6
CENTER
 62
     4
 10
7402.245634
 20
4413.364071
 11
7402.245634
 21
4530.709005
  0
LINE
  8
001
 10
7419.745634
 20
4425.006932
 11
7419.745634
 21
4435.006932
  0
LINE
  8
001
 10
7384.745634
 20
4425.006932
 11
7384.745634
 21
4435.006932
  0
LINE
  8
001
 10
7387.245634
 20
4463.795607
 11
7381.245634
 21
4467.259709
  0
LINE
  8
001
 10
7417.245634
 20
4463.795607
 11
7423.245634
 21
4467.259709
  0
LINE
  8
001
 10
7418.495634
 20
4463.506932
 11
7425.995634
 21
4467.837059
  0
LINE
  8
001
 10
7385.995634
 20
4463.506932
 11
7378.495634
 21
4467.837059
  0
LINE
  8
001
 10
7378.495634
 20
4467.837059
 11
7378.495634
 21
4525.006932
  0
LINE
  8
001
 10
7425.995634
 20
4467.837059
 11
7425.995634
 21
4525.006932
  0
LINE
  8
001
 10
7388.245634
 20
4465.527658
 11
7382.245634
 21
4468.991759
  0
LINE
  8
001
 10
7416.245634
 20
4465.527658
 11
7422.245634
 21
4468.991759
  0
LINE
  8
001
 10
7399.783342
 20
4499.588056
 11
7380.283342
 21
4471.571587
  0
LINE
  8
001
 10
7404.707926
 20
4499.588056
 11
7424.207926
 21
4471.571587
  0
LINE
  8
001
 10
7401.42487
 20
4498.445521
 11
7381.92487
 21
4470.429052
  0
LINE
  8
001
 10
7403.066398
 20
4498.445521
 11
7422.566398
 21
4470.429052
  0
LINE
  8
001
 10
7444.745634
 20
4423.006932
 11
7444.745634
 21
4425.006932
  0
LINE
  8
001
 10
7359.745634
 20
4423.006932
 11
7359.745634
 21
4425.006932
  0
ARC
  8
001
 10
7417.745634
 20
4426.006932
 40
1.0
 50
180.0
 51
270.0
  0
ARC
  8
001
 10
7386.745634
 20
4426.006932
 40
1.0
 50
270.0
 51
0.0
  0
ARC
  8
001
 10
7386.745634
 20
4426.006932
 40
3.0
 50
270.0
 51
0.0
  0
ARC
  8
001
 10
7417.745634
 20
4426.006932
 40
3.0
 50
180.0
 51
270.0
  0
LINE
  8
001
 10
7352.245634
 20
4425.006932
 11
7386.745634
 21
4425.006932
  0
LINE
  8
001
 10
7389.574061
 20
4425.006932
 11
7414.917207
 21
4425.006932
  0
LINE
  8
001
 10
7417.745634
 20
4425.006932
 11
7452.245634
 21
4425.006932
  0
LINE
  8
001
 10
7444.745634
 20
4423.006932
 11
7417.745634
 21
4423.006932
  0
LINE
  8
001
 10
7386.745634
 20
4423.006932
 11
7359.745634
 21
4423.006932
  0
LINE
  8
001
 10
7387.745634
 20
4426.006932
 11
7387.745634
 21
4462.929582
  0
LINE
  8
001
 10
7389.745634
 20
4426.006932
 11
7389.745634
 21
4462.929582
  0
LINE
  8
001
 10
7414.745634
 20
4426.006932
 11
7414.745634
 21
4462.929582
  0
LINE
  8
001
 10
7416.745634
 20
4426.006932
 11
7416.745634
 21
4462.929582
  0
ARC
  8
001
 10
7402.245634
 20
4497.874254
 40
1.0
 50
34.838658
 51
145.161342
  0
ARC
  8
001
 10
7402.245634
 20
4497.874254
 40
3.0
 50
34.838658
 51
145.161342
  0
ARC
  8
001
 10
7382.745634
 20
4469.857785
 40
1.0
 50
145.161342
 51
240.0
  0
ARC
  8
001
 10
7382.745634
 20
4469.857785
 40
3.0
 50
145.161342
 51
240.0
  0
ARC
  8
001
 10
7421.745634
 20
4469.857785
 40
1.0
 50
300.0
 51
34.838658
  0
ARC
  8
001
 10
7421.745634
 20
4469.857785
 40
3.0
 50
300.0
 51
34.838658
  0
ARC
  8
001
 10
7417.745634
 20
4462.929582
 40
1.0
 50
120.0
 51
180.0
  0
ARC
  8
001
 10
7417.745634
 20
4462.929582
 40
3.0
 50
120.0
 51
180.0
  0
ARC
  8
001
 10
7386.745634
 20
4462.929582
 40
1.0
 50
0.0
 51
60.0
  0
ARC
  8
001
 10
7386.745634
 20
4462.929582
 40
3.0
 50
0.0
 51
60.0
  0
LINE
  8
001
 10
7378.495634
 20
4467.837059
 11
7380.528278
 21
4467.837059
  0
LINE
  8
001
 10
7425.995634
 20
4467.837059
 11
7423.96299
 21
4467.837059
  0
LINE
  8
001
 10
7418.495634
 20
4463.506932
 11
7416.929137
 21
4463.506932
  0
LINE
  8
001
 10
7387.56213
 20
4463.506932
 11
7385.995634
 21
4463.506932
  0
LINE
  8
001
 10
7447.245634
 20
4435.006932
 11
7416.745634
 21
4435.006932
  0
LINE
  8
001
 10
7414.745634
 20
4435.006932
 11
7389.745634
 21
4435.006932
  0
LINE
  8
001
 10
7387.745634
 20
4435.006932
 11
7357.245634
 21
4435.006932
  0
LINE
  8
001
 10
7800.420497
 20
4525.440216
 11
7710.420497
 21
4525.440216
  0
LINE
  8
001
 10
7705.420497
 20
4440.440216
 11
7705.420497
 21
4520.440216
  0
LINE
  8
001
 10
7805.420497
 20
4520.440216
 11
7805.420497
 21
4440.440216
  0
ARC
  8
001
 10
7710.420497
 20
4520.440216
 40
5.0
 50
90.0
 51
180.0
  0
ARC
  8
001
 10
7710.420497
 20
4440.440216
 40
5.0
 50
180.0
 51
270.0
  0
ARC
  8
001
 10
7800.420497
 20
4440.440216
 40
5.0
 50
270.0
 51
0.0
  0
ARC
  8
001
 10
7800.420497
 20
4520.440216
 40
5.0
 50
0.0
 51
90.0
  0
LINE
  8
001
 10
7790.420497
 20
4455.440216
 11
7710.420497
 21
4455.440216
  0
ARC
  8
001
 10
7710.420497
 20
4450.440216
 40
5.0
 50
90.0
 51
180.0
  0
LINE
  8
001
 10
7805.420497
 20
4435.440216
 11
7800.420497
 21
4435.440216
  0
LINE
  8
001
 10
7705.420497
 20
4435.440216
 11
7710.420497
 21
4435.440216
  0
LINE
  8
001
 10
7705.420497
 20
4435.440216
 11
7705.420497
 21
4425.440216
  0
LINE
  8
001
 10
7805.420497
 20
4425.440216
 11
7805.420497
 21
4435.440216
  0
LINE
  8
001
 10
7705.420497
 20
4435.440216
 11
7705.420497
 21
4440.440216
  0
LINE
  8
001
 10
7805.420497
 20
4435.440216
 11
7805.420497
 21
4440.440216
  0
LINE
  8
001
 10
7765.420497
 20
4410.440216
 11
7745.420497
 21
4410.440216
  0
LINE
  8
001
  6
CENTER
 62
     4
 10
7755.420497
 20
4405.593332
 11
7755.420497
 21
4531.142289
  0
LINE
  8
001
 10
7770.420497
 20
4433.940216
 11
7770.420497
 21
4415.440216
  0
LINE
  8
001
 10
7740.420497
 20
4433.940216
 11
7740.420497
 21
4415.440216
  0
ARC
  8
001
 10
7745.420497
 20
4415.440216
 40
5.0
 50
180.0
 51
270.0
  0
ARC
  8
001
 10
7765.420497
 20
4415.440216
 40
5.0
 50
270.0
 51
0.0
  0
LINE
  8
001
 10
7771.920497
 20
4435.440216
 11
7800.420497
 21
4435.440216
  0
LINE
  8
001
 10
7738.920497
 20
4435.440216
 11
7710.420497
 21
4435.440216
  0
ARC
  8
001
 10
7738.920497
 20
4433.940216
 40
1.5
 50
0.0
 51
90.0
  0
ARC
  8
001
 10
7771.920497
 20
4433.940216
 40
1.5
 50
90.0
 51
180.0
  0
LINE
  8
001
 10
7790.420497
 20
4455.440216
 11
7790.420497
 21
4525.440216
  0
LINE
  8
001
 10
7705.420497
 20
4425.440216
 11
7740.420497
 21
4425.440216
  0
LINE
  8
001
 10
7770.420497
 20
4425.440216
 11
7805.420497
 21
4425.440216
  0
LINE
  8
001
 10
7739.170497
 20
4425.440216
 11
7739.170497
 21
4435.419236
  0
LINE
  8
001
 10
7771.670497
 20
4425.440216
 11
7771.670497
 21
4435.419236
  0
TEXT
  8
001
 10
7771.43611
 20
3487.81638
 40
20.0
  1
SEC A-A
 41
1.09375
  0
TEXT
  8
001
 10
7282.334871
 20
4324.461944
 40
20.0
  1
SEC B-B(S=1/1)
 41
1.160221
  0
TEXT
  8
001
 10
7617.274321
 20
4324.461944
 40
20.0
  1
SEC C-C(S=1/1)
 41
1.160221
  0
LINE
  8
001
 10
7282.334871
 20
4324.461944
 11
7562.334871
 21
4324.461944
  0
LINE
  8
001
 10
7617.274321
 20
4324.461944
 11
7897.274321
 21
4324.461944
  0
LINE
  8
001
 10
7771.43611
 20
3487.81638
 11
7911.43611
 21
3487.81638
  0
LINE
  8
001
 10
7349.651944
 20
3558.452541
 11
7345.651944
 21
3558.452541
  0
LINE
  8
001
 10
7454.651944
 20
3559.452541
 11
7454.651944
 21
3561.452541
  0
LINE
  8
001
 10
7460.651944
 20
3559.452541
 11
7460.651944
 21
3561.452541
  0
LINE
  8
001
 10
7344.651944
 20
3559.452541
 11
7344.651944
 21
3561.452541
  0
LINE
  8
001
 10
7350.651944
 20
3559.452541
 11
7350.651944
 21
3561.452541
  0
ARC
  8
001
 10
7345.651944
 20
3559.452541
 40
1.0
 50
180.0
 51
270.0
  0
ARC
  8
001
 10
7349.651944
 20
3559.452541
 40
1.0
 50
270.0
 51
0.0
  0
LINE
  8
001
 10
7459.651944
 20
3558.452541
 11
7455.651944
 21
3558.452541
  0
ARC
  8
001
 10
7455.651944
 20
3559.452541
 40
1.0
 50
180.0
 51
270.0
  0
ARC
  8
001
 10
7459.651944
 20
3559.452541
 40
1.0
 50
270.0
 51
0.0
  0
LINE
  8
001
  6
CENTER
 62
     4
 10
7457.651944
 20
3544.269856
 11
7457.651944
 21
3592.816525
  0
LINE
  8
001
 62
     4
 10
6846.818417
 20
3543.20518
 11
6827.012971
 21
3543.20518
  0
LINE
  8
001
 62
     4
 10
6846.818417
 20
4096.6391
 11
6826.687155
 21
4096.6391
  0
LINE
  8
001
 62
     4
 10
7382.651944
 20
3591.024537
 11
7396.627214
 21
3591.024537
  0
LINE
  8
001
 62
     4
 10
7382.651944
 20
3545.410215
 11
7395.975581
 21
3545.410215
  0
LINE
  8
001
 62
     4
 10
7457.651944
 20
3544.269856
 11
7470.587579
 21
3544.269856
  0
LINE
  8
001
 62
     4
 10
7457.651944
 20
3592.816525
 11
7469.935946
 21
3592.816525
  0
LINE
  8
001
 10
7469.935946
 20
3592.816525
 11
7464.19965
 21
3596.128377
  0
LINE
  8
001
 10
7396.627214
 20
3591.024537
 11
7390.664791
 21
3594.466943
  0
LINE
  8
001
 10
6826.687155
 20
4096.6391
 11
6837.40577
 21
4102.827495
  0
LINE
  8
001
 10
6827.012971
 20
3543.20518
 11
6835.898927
 21
3538.074871
  0
LINE
  8
001
 10
7395.975581
 20
3545.410215
 11
7389.115028
 21
3541.449273
  0
LINE
  8
001
 10
7470.587579
 20
3544.269856
 11
7463.07461
 21
3539.932242
  0
LINE
  8
001
 10
7463.07461
 20
3539.932242
 11
7463.07461
 21
3548.424008
  0
LINE
  8
001
 10
7464.19965
 20
3596.128377
 11
7464.19965
 21
3590.454355
  0
LINE
  8
001
 10
7389.115028
 20
3541.449273
 11
7389.115028
 21
3548.261107
  0
LINE
  8
001
 10
7390.664791
 20
3594.466943
 11
7390.664791
 21
3588.499455
  0
LINE
  8
001
 10
6835.898927
 20
3538.074871
 11
6835.898927
 21
3546.794924
  0
LINE
  8
001
 10
6837.40577
 20
4102.827495
 11
6837.40577
 21
4091.594701
  0
TEXT
  8
001
 10
6825.991617
 20
4109.840445
 40
20.0
  1
A
  0
TEXT
  8
001
 10
6825.991617
 20
3509.488937
 40
20.0
  1
A
  0
TEXT
  8
001
 10
7388.400416
 20
3597.785231
 40
20.0
  1
B
  0
TEXT
  8
001
 10
7388.400416
 20
3517.960168
 40
20.0
  1
B
  0
TEXT
  8
001
 10
7459.102615
 20
3600.391764
 40
20.0
  1
C
  0
TEXT
  8
001
 10
7461.057515
 20
3516.005268
 40
20.0
  1
C
  0
LINE
  8
001
 10
6884.269483
 20
4061.452541
 11
6884.269483
 21
3561.452541
  0
LINE
  8
001
 10
6904.269483
 20
3561.452541
 11
6904.269483
 21
4061.452541
  0
LINE
  8
001
 10
5704.269483
 20
3561.452541
 11
5704.269483
 21
4061.452541
  0
LINE
  8
001
 10
5724.269483
 20
4061.452541
 11
5724.269483
 21
3561.452541
  0
LINE
  8
001
 10
7271.401944
 20
3796.452541
 11
7493.901944
 21
3796.452541
  0
LINE
  8
001
 10
7950.414717
 20
3794.452541
 11
7727.914717
 21
3794.452541
  0
LINE
  8
001
  6
CENTER
 62
     4
 10
7382.651944
 20
3545.410215
 11
7382.651944
 21
4085.106585
  0
LINE
  8
001
  6
CENTER
 62
     4
 10
7839.164717
 20
3548.561684
 11
7839.164717
 21
4085.106585
  0
LINE
  8
001
 10
7499.901944
 20
4055.452541
 11
7499.901944
 21
3567.452541
  0
LINE
  8
001
 10
7497.901944
 20
4055.452541
 11
7497.901944
 21
3567.452541
  0
LINE
  8
001
 10
7267.401944
 20
3776.824873
 11
7267.401944
 21
4055.452541
  0
LINE
  8
001
 10
7265.401944
 20
3776.638707
 11
7265.401944
 21
4055.452541
  0
LINE
  8
001
 10
7725.914717
 20
3776.452541
 11
7725.914717
 21
3792.452541
  0
LINE
  8
001
 10
7952.414717
 20
3776.452541
 11
7952.414717
 21
3792.452541
  0
ARC
  8
001
 10
7727.914717
 20
3792.452541
 40
2.0
 50
90.0
 51
180.0
  0
ARC
  8
001
 10
7950.414717
 20
3792.452541
 40
2.0
 50
0.0
 51
90.0
  0
ARC
  8
001
 10
7727.914717
 20
3792.452541
 40
4.0
 50
90.0
 51
180.0
  0
ARC
  8
001
 10
7950.414717
 20
3792.452541
 40
4.0
 50
0.0
 51
90.0
  0
LINE
  8
001
 10
7725.914717
 20
3776.452541
 11
7723.914717
 21
3776.452541
  0
LINE
  8
001
 10
7952.414717
 20
3776.452541
 11
7954.414717
 21
3776.452541
  0
LINE
  8
001
 10
7306.789413
 20
3566.714272
 11
7267.470665
 21
3776.086605
  0
LINE
  8
001
 10
7265.470665
 20
3775.900439
 11
7304.823773
 21
3566.345138
  0
ARC
  8
001
 10
7271.401944
 20
3776.824873
 40
4.0
 50
180.0
 51
190.635896
  0
ARC
  8
001
 10
7269.401944
 20
3776.638707
 40
4.0
 50
180.0
 51
190.635896
  0
ARC
  8
001
 10
7310.720692
 20
3567.452541
 40
4.0
 50
190.635896
 51
270.0
  0
ARC
  8
001
 10
7310.720692
 20
3567.452541
 40
6.0
 50
190.635896
 51
270.0
  0
LINE
  8
001
  6
CENTER
 62
     4
 10
7347.651944
 20
3551.600719
 11
7347.651944
 21
3563.822073
  0
LINE
  8
001
 10
7496.651944
 20
3814.452541
 11
7268.651944
 21
3814.452541
  0
ARC
  8
001
 10
7496.651944
 20
3813.452541
 40
1.0
 50
0.0
 51
90.0
  0
LINE
  8
001
 10
7497.651944
 20
3800.452541
 11
7497.651944
 21
3813.452541
  0
ARC
  8
001
 10
7493.651944
 20
3800.452541
 40
4.0
 50
270.0
 51
0.0
  0
LINE
  8
001
 10
7267.651944
 20
3800.452541
 11
7267.651944
 21
3813.452541
  0
ARC
  8
001
 10
7268.651944
 20
3813.452541
 40
1.0
 50
90.0
 51
180.0
  0
ARC
  8
001
 10
7271.651944
 20
3800.452541
 40
4.0
 50
180.0
 51
270.0
  0
ARC
  8
001
 10
7725.914717
 20
3776.638707
 40
4.0
 50
180.0
 51
190.635896
  0
ARC
  8
001
 10
7727.914717
 20
3776.824873
 40
4.0
 50
180.0
 51
190.635896
  0
LINE
  8
001
 10
7763.302185
 20
3566.714272
 11
7723.983437
 21
3776.086605
  0
LINE
  8
001
 10
7721.983437
 20
3775.900439
 11
7761.336545
 21
3566.345138
  0
ARC
  8
001
 10
7767.233465
 20
3567.452541
 40
4.0
 50
190.635896
 51
270.0
  0
ARC
  8
001
 10
7767.233465
 20
3567.452541
 40
6.0
 50
190.635896
 51
270.0
  0
LINE
  8
001
 10
7767.233465
 20
3561.452541
 11
7950.414717
 21
3561.452541
  0
LINE
  8
001
 10
7767.233465
 20
3563.452541
 11
7950.414717
 21
3563.452541
  0
LINE
  8
001
 10
7727.914717
 20
3796.452541
 11
7950.414717
 21
3796.452541
  0
CIRCLE
  8
001
 10
7779.164717
 20
3573.452541
 40
5.0
  0
CIRCLE
  8
001
 10
7779.164717
 20
3573.452541
 40
4.6
  0
ARC
  8
001
 10
7785.214717
 20
3575.688609
 40
1.45
 50
20.284212
 51
200.284196
  0
ARC
  8
001
 10
7773.114717
 20
3575.688609
 40
1.45
 50
339.715788
 51
159.715771
  0
CIRCLE
  8
001
 10
7819.164717
 20
3573.452541
 40
5.0
  0
CIRCLE
  8
001
 10
7819.164717
 20
3573.452541
 40
4.6
  0
ARC
  8
001
 10
7825.214717
 20
3575.688609
 40
1.45
 50
20.284212
 51
200.284196
  0
ARC
  8
001
 10
7813.114717
 20
3575.688609
 40
1.45
 50
339.715788
 51
159.715771
  0
CIRCLE
  8
001
 10
7859.164717
 20
3573.452541
 40
5.0
  0
CIRCLE
  8
001
 10
7859.164717
 20
3573.452541
 40
4.6
  0
ARC
  8
001
 10
7853.114717
 20
3575.688609
 40
1.45
 50
339.715788
 51
159.715771
  0
LINE
  8
001
 10
7771.264717
 20
3573.452541
 11
7771.264717
 21
3564.452541
  0
LINE
  8
001
 10
7788.008358
 20
3573.452541
 11
7810.321075
 21
3573.452541
  0
LINE
  8
001
 10
7828.008358
 20
3573.452541
 11
7850.321075
 21
3573.452541
  0
LINE
  8
001
  6
CENTER
 62
     4
 10
7819.164717
 20
3558.117132
 11
7819.164717
 21
3582.390471
  0
LINE
  8
001
  6
CENTER
 62
     4
 10
7779.164717
 20
3558.117132
 11
7779.164717
 21
3582.390471
  0
ARC
  8
001
 10
7779.164717
 20
3573.452541
 40
7.9
 50
159.715788
 51
180.0
  0
ARC
  8
001
 10
7779.164717
 20
3573.452541
 40
7.9
 50
325.819784
 51
20.284212
  0
LINE
  8
001
 10
7811.801973
 20
3567.452541
 11
7786.527461
 21
3567.452541
  0
LINE
  8
001
 10
7851.801973
 20
3567.452541
 11
7826.527461
 21
3567.452541
  0
ARC
  8
001
 10
7786.527461
 20
3568.452541
 40
1.0
 50
145.819784
 51
270.0
  0
ARC
  8
001
 10
7819.164717
 20
3573.452541
 40
7.9
 50
159.715788
 51
214.180216
  0
ARC
  8
001
 10
7819.164717
 20
3573.452541
 40
7.9
 50
325.819784
 51
20.284212
  0
ARC
  8
001
 10
7859.164717
 20
3573.452541
 40
7.9
 50
159.715788
 51
214.180216
  0
ARC
  8
001
 10
7811.801973
 20
3568.452541
 40
1.0
 50
270.0
 51
34.180216
  0
ARC
  8
001
 10
7826.527461
 20
3568.452541
 40
1.0
 50
145.819784
 51
270.0
  0
ARC
  8
001
 10
7851.801973
 20
3568.452541
 40
1.0
 50
270.0
 51
34.180216
  0
ARC
  8
001
 10
7788.008358
 20
3574.452541
 40
1.0
 50
186.451351
 51
270.0
  0
ARC
  8
001
 10
7810.321075
 20
3574.452541
 40
1.0
 50
270.0
 51
353.548649
  0
ARC
  8
001
 10
7828.008358
 20
3574.452541
 40
1.0
 50
186.451351
 51
270.0
  0
ARC
  8
001
 10
7850.321075
 20
3574.452541
 40
1.0
 50
270.0
 51
353.548649
  0
ARC
  8
001
 10
7772.264717
 20
3564.452541
 40
1.0
 50
180.0
 51
270.0
  0
LINE
  8
001
  6
CENTER
 62
     4
 10
7769.541778
 20
3573.452541
 11
7788.683502
 21
3573.452541
  0
LINE
  8
001
  6
CENTER
 62
     4
 10
7809.541778
 20
3573.452541
 11
7828.683502
 21
3573.452541
  0
LINE
  8
001
  6
CENTER
 62
     4
 10
7849.541778
 20
3573.452541
 11
7868.683502
 21
3573.452541
  0
ARC
  8
001
 10
7865.214717
 20
3575.688609
 40
1.45
 50
20.284212
 51
200.284196
  0
LINE
  8
001
 10
7868.008358
 20
3573.452541
 11
7890.321075
 21
3573.452541
  0
LINE
  8
001
  6
CENTER
 62
     4
 10
7859.164717
 20
3558.117132
 11
7859.164717
 21
3582.390471
  0
LINE
  8
001
 10
7891.801973
 20
3567.452541
 11
7866.527461
 21
3567.452541
  0
ARC
  8
001
 10
7859.164717
 20
3573.452541
 40
7.9
 50
325.819784
 51
20.284212
  0
ARC
  8
001
 10
7866.527461
 20
3568.452541
 40
1.0
 50
145.819784
 51
270.0
  0
ARC
  8
001
 10
7868.008358
 20
3574.452541
 40
1.0
 50
186.451351
 51
270.0
  0
CIRCLE
  8
001
 10
7899.164717
 20
3573.452541
 40
5.0
  0
CIRCLE
  8
001
 10
7899.164717
 20
3573.452541
 40
4.6
  0
ARC
  8
001
 10
7905.214717
 20
3575.688609
 40
1.45
 50
20.284212
 51
200.284196
  0
ARC
  8
001
 10
7893.114717
 20
3575.688609
 40
1.45
 50
339.715788
 51
159.715771
  0
LINE
  8
001
 10
7908.008358
 20
3573.452541
 11
7930.321075
 21
3573.452541
  0
LINE
  8
001
  6
CENTER
 62
     4
 10
7899.164717
 20
3558.117132
 11
7899.164717
 21
3582.390471
  0
LINE
  8
001
 10
7931.801973
 20
3567.452541
 11
7906.527461
 21
3567.452541
  0
ARC
  8
001
 10
7899.164717
 20
3573.452541
 40
7.9
 50
159.715788
 51
214.180216
  0
ARC
  8
001
 10
7899.164717
 20
3573.452541
 40
7.9
 50
325.819784
 51
20.284212
  0
ARC
  8
001
 10
7891.801973
 20
3568.452541
 40
1.0
 50
270.0
 51
34.180216
  0
ARC
  8
001
 10
7906.527461
 20
3568.452541
 40
1.0
 50
145.819784
 51
270.0
  0
ARC
  8
001
 10
7890.321075
 20
3574.452541
 40
1.0
 50
270.0
 51
353.548649
  0
ARC
  8
001
 10
7908.008358
 20
3574.452541
 40
1.0
 50
186.451351
 51
270.0
  0
LINE
  8
001
  6
CENTER
 62
     4
 10
7889.541778
 20
3573.452541
 11
7908.683502
 21
3573.452541
  0
CIRCLE
  8
001
 10
7939.164717
 20
3573.452541
 40
5.0
  0
CIRCLE
  8
001
 10
7939.164717
 20
3573.452541
 40
4.6
  0
ARC
  8
001
 10
7945.214717
 20
3575.688609
 40
1.45
 50
20.284212
 51
200.284196
  0
ARC
  8
001
 10
7933.114717
 20
3575.688609
 40
1.45
 50
339.715788
 51
159.715771
  0
LINE
  8
001
 10
7947.064717
 20
3573.452541
 11
7947.064717
 21
3564.452541
  0
LINE
  8
001
  6
CENTER
 62
     4
 10
7939.164717
 20
3558.117132
 11
7939.164717
 21
3582.390471
  0
ARC
  8
001
 10
7939.164717
 20
3573.452541
 40
7.9
 50
159.715788
 51
214.180216
  0
ARC
  8
001
 10
7939.164717
 20
3573.452541
 40
7.9
 50
360.0
 51
20.284212
  0
ARC
  8
001
 10
7931.801973
 20
3568.452541
 40
1.0
 50
270.0
 51
34.180216
  0
ARC
  8
001
 10
7930.321075
 20
3574.452541
 40
1.0
 50
270.0
 51
353.548649
  0
ARC
  8
001
 10
7946.064717
 20
3564.452541
 40
1.0
 50
270.0
 51
0.0
  0
LINE
  8
001
  6
CENTER
 62
     4
 10
7929.541778
 20
3573.452541
 11
7948.683502
 21
3573.452541
  0
ARC
  8
001
 10
7271.401944
 20
3792.452541
 40
4.0
 50
90.0
 51
180.0
  0
ARC
  8
001
 10
7271.401944
 20
3792.452541
 40
2.0
 50
90.0
 51
180.0
  0
LINE
  8
001
 10
7269.401944
 20
3776.452541
 11
7269.401944
 21
3792.452541
  0
LINE
  8
001
 10
7269.401944
 20
3776.452541
 11
7267.401944
 21
3776.452541
  0
LINE
  8
001
 10
7493.901944
 20
3794.452541
 11
7271.401944
 21
3794.452541
  0
LINE
  8
001
 10
7271.401944
 20
3796.452541
 11
7493.901944
 21
3796.452541
  0
LINE
  8
001
 10
7495.901944
 20
3776.452541
 11
7495.901944
 21
3792.452541
  0
ARC
  8
001
 10
7493.901944
 20
3792.452541
 40
2.0
 50
0.0
 51
90.0
  0
ARC
  8
001
 10
7493.901944
 20
3792.452541
 40
4.0
 50
0.0
 51
90.0
  0
LINE
  8
001
 10
7495.901944
 20
3776.452541
 11
7497.901944
 21
3776.452541
  0
LINE
  8
001
 10
6296.769483
 20
3808.888541
 11
6296.769483
 21
3798.452541
  0
LINE
  8
001
 10
6311.769483
 20
3808.888541
 11
6311.769483
 21
3798.452541
  0
LINE
  8
001
 10
6310.769483
 20
3797.452541
 11
6297.769483
 21
3797.452541
  0
ARC
  8
001
 10
6297.769483
 20
3798.452541
 40
1.0
 50
180.0
 51
270.0
  0
ARC
  8
001
 10
6310.769483
 20
3798.452541
 40
1.0
 50
270.0
 51
0.0
  0
LINE
  8
001
 10
6310.769483
 20
3809.888541
 11
6297.769483
 21
3809.888541
  0
ARC
  8
001
 10
6297.769483
 20
3808.888541
 40
1.0
 50
90.0
 51
180.0
  0
ARC
  8
001
 10
6310.769483
 20
3808.888541
 40
1.0
 50
0.0
 51
90.0
  0
LINE
  8
001
  6
DASHED
 10
5724.269483
 20
3796.452541
 11
5704.269483
 21
3796.452541
  0
LINE
  8
001
  6
DASHED
 10
5724.269483
 20
3776.452541
 11
5704.269483
 21
3776.452541
  0
LINE
  8
001
  6
DASHED
 10
6904.269483
 20
3796.452541
 11
6884.269483
 21
3796.452541
  0
LINE
  8
001
  6
DASHED
 10
6904.269483
 20
3776.452541
 11
6884.269483
 21
3776.452541
  0
LINE
  8
001
 10
6904.269483
 20
3283.835235
 11
6884.269483
 21
3283.835235
  0
LINE
  8
001
  6
CENTER
 62
     4
 10
6894.269483
 20
3177.587848
 11
6894.269483
 21
3155.921046
  0
LINE
  8
001
 10
6890.769483
 20
3161.425235
 11
6897.769483
 21
3161.425235
  0
LINE
  8
001
 10
6890.769483
 20
3172.425235
 11
6897.769483
 21
3172.425235
  0
LINE
  8
001
  6
DASHED
 10
6897.769483
 20
3201.925235
 11
6897.769483
 21
3211.925235
  0
LINE
  8
001
 10
6902.769483
 20
3201.925235
 11
6902.769483
 21
3211.925235
  0
LINE
  8
001
 10
6896.769483
 20
3201.925235
 11
6896.769483
 21
3211.925235
  0
LINE
  8
001
 10
6902.769483
 20
3211.925235
 11
6885.769483
 21
3211.925235
  0
LINE
  8
001
 10
6897.769483
 20
3211.925235
 11
6897.769483
 21
3212.425235
  0
LINE
  8
001
 10
6890.769483
 20
3212.425235
 11
6897.769483
 21
3212.425235
  0
LINE
  8
001
  6
DASHED
 10
6890.769483
 20
3201.925235
 11
6890.769483
 21
3211.925235
  0
LINE
  8
001
 10
6885.769483
 20
3201.925235
 11
6885.769483
 21
3211.925235
  0
LINE
  8
001
 10
6891.769483
 20
3201.925235
 11
6891.769483
 21
3211.925235
  0
LINE
  8
001
 10
6890.769483
 20
3211.925235
 11
6890.769483
 21
3212.425235
  0
LINE
  8
001
  6
CENTER
 62
     4
 10
6894.269483
 20
3217.587848
 11
6894.269483
 21
3195.921046
  0
LINE
  8
001
 10
6885.769483
 20
3201.925235
 11
6902.769483
 21
3201.925235
  0
LINE
  8
001
 10
6890.769483
 20
3201.925235
 11
6890.769483
 21
3201.425235
  0
LINE
  8
001
 10
6890.769483
 20
3201.425235
 11
6897.769483
 21
3201.425235
  0
LINE
  8
001
 10
6897.769483
 20
3201.925235
 11
6897.769483
 21
3201.425235
  0
CIRCLE
  8
001
 10
5714.269483
 20
3131.925235
 40
3.25
  0
CIRCLE
  8
001
 10
5714.269483
 20
3241.925235
 40
3.25
  0
LINE
  8
001
  6
CENTER
 62
     4
 10
5709.175233
 20
3241.925235
 11
5719.764281
 21
3241.925235
  0
LINE
  8
001
  6
CENTER
 62
     4
 10
5720.497376
 20
3131.925235
 11
5708.116345
 21
3131.925235
  0
LINE
  8
001
  6
CENTER
 62
     4
 10
5714.269483
 20
3249.135323
 11
5714.269483
 21
3234.636463
  0
LINE
  8
001
  6
CENTER
 62
     4
 10
5714.269483
 20
3138.709519
 11
5714.269483
 21
3123.721957
  0
CIRCLE
  8
001
 10
5714.269483
 20
3241.925235
 40
3.0
  0
CIRCLE
  8
001
 10
5714.269483
 20
3131.925235
 40
3.0
  0
LINE
  8
001
  6
CENTER
 62
     4
 10
5714.269483
 20
3177.587848
 11
5714.269483
 21
3155.921046
  0
LINE
  8
001
 10
5710.769483
 20
3161.425235
 11
5717.769483
 21
3161.425235
  0
LINE
  8
001
 10
5710.769483
 20
3172.425235
 11
5717.769483
 21
3172.425235
  0
LINE
  8
001
 10
5716.769483
 20
3201.925235
 11
5716.769483
 21
3211.925235
  0
LINE
  8
001
 10
5722.769483
 20
3211.925235
 11
5705.769483
 21
3211.925235
  0
LINE
  8
001
 10
5710.769483
 20
3212.425235
 11
5717.769483
 21
3212.425235
  0
LINE
  8
001
  6
DASHED
 10
5710.769483
 20
3201.925235
 11
5710.769483
 21
3211.925235
  0
LINE
  8
001
 10
5711.769483
 20
3201.925235
 11
5711.769483
 21
3211.925235
  0
LINE
  8
001
 10
5710.769483
 20
3211.925235
 11
5710.769483
 21
3212.425235
  0
LINE
  8
001
  6
CENTER
 62
     4
 10
5714.269483
 20
3217.587848
 11
5714.269483
 21
3195.921046
  0
LINE
  8
001
 10
5705.769483
 20
3201.925235
 11
5722.769483
 21
3201.925235
  0
LINE
  8
001
 10
5710.769483
 20
3201.925235
 11
5710.769483
 21
3201.425235
  0
LINE
  8
001
 10
5710.769483
 20
3201.425235
 11
5717.769483
 21
3201.425235
  0
LINE
  8
001
  6
DASHED
 10
5717.769483
 20
3201.925235
 11
5717.769483
 21
3211.925235
  0
LINE
  8
001
 10
5722.769483
 20
3201.925235
 11
5722.769483
 21
3211.925235
  0
LINE
  8
001
 10
5717.769483
 20
3211.925235
 11
5717.769483
 21
3212.425235
  0
LINE
  8
001
 10
5717.769483
 20
3201.925235
 11
5717.769483
 21
3201.425235
  0
LINE
  8
001
 10
5705.769483
 20
3201.925235
 11
5705.769483
 21
3211.925235
  0
LINE
  8
001
 10
5724.269483
 20
3280.532835
 11
5704.269483
 21
3280.532835
  0
ARC
  8
001
 10
6310.769483
 20
3273.825235
 40
1.0
 50
0.0
 51
90.0
  0
LINE
  8
001
 10
6297.769483
 20
3274.825235
 11
6310.769483
 21
3274.825235
  0
ARC
  8
001
 10
6297.769483
 20
3273.825235
 40
1.0
 50
90.0
 51
180.0
  0
LINE
  8
001
 10
6296.769483
 20
3801.452541
 11
5724.269483
 21
3801.452541
  0
LINE
  8
001
 10
6296.769483
 20
3568.452541
 11
5724.269483
 21
3568.452541
  0
LINE
  8
001
 10
6884.269483
 20
3568.452541
 11
6311.769483
 21
3568.452541
  0
LINE
  8
001
 10
6884.269483
 20
3801.452541
 11
6311.769483
 21
3801.452541
  0
ARC
  8
001
 10
6297.769483
 20
4572.113629
 40
1.0
 50
90.0
 51
180.0
  0
ARC
  8
001
 10
6297.769483
 20
4358.313629
 40
1.0
 50
180.0
 51
270.0
  0
LINE
  8
001
 10
6310.769483
 20
4573.113629
 11
6297.769483
 21
4573.113629
  0
LINE
  8
001
 10
6310.769483
 20
4357.313629
 11
6297.769483
 21
4357.313629
  0
ARC
  8
001
 10
6310.769483
 20
4572.113629
 40
1.0
 50
0.0
 51
90.0
  0
ARC
  8
001
 10
6310.769483
 20
4358.313629
 40
1.0
 50
270.0
 51
0.0
  0
LINE
  8
001
 10
6310.769483
 20
4560.613629
 11
6297.769483
 21
4560.613629
  0
LINE
  8
001
 10
6310.769483
 20
4569.813629
 11
6297.769483
 21
4569.813629
  0
LINE
  8
001
 10
6296.769483
 20
4570.813629
 11
6296.769483
 21
4572.113629
  0
LINE
  8
001
 10
6311.769483
 20
4570.813629
 11
6311.769483
 21
4572.113629
  0
LINE
  8
001
 10
6296.769483
 20
4559.613629
 11
6296.769483
 21
4530.213629
  0
LINE
  8
001
 10
6311.769483
 20
4559.613629
 11
6311.769483
 21
4530.213629
  0
LINE
  8
001
 10
6296.769483
 20
4490.213629
 11
6296.769483
 21
4520.213629
  0
LINE
  8
001
 10
6311.769483
 20
4490.213629
 11
6311.769483
 21
4520.213629
  0
LINE
  8
001
 10
6296.769483
 20
4450.213629
 11
6296.769483
 21
4480.213629
  0
LINE
  8
001
 10
6311.769483
 20
4450.213629
 11
6311.769483
 21
4480.213629
  0
LINE
  8
001
 10
6296.769483
 20
4410.213629
 11
6296.769483
 21
4440.213629
  0
LINE
  8
001
 10
6311.769483
 20
4410.213629
 11
6311.769483
 21
4440.213629
  0
LINE
  8
001
 10
6296.769483
 20
4358.313629
 11
6296.769483
 21
4360.213629
  0
LINE
  8
001
 10
6296.769483
 20
4370.213629
 11
6296.769483
 21
4400.213629
  0
LINE
  8
001
 10
6311.769483
 20
4358.313629
 11
6311.769483
 21
4360.213629
  0
LINE
  8
001
 10
6311.769483
 20
4370.213629
 11
6311.769483
 21
4400.213629
  0
ARC
  8
001
 10
6297.769483
 20
4570.813629
 40
1.0
 50
180.0
 51
270.0
  0
ARC
  8
001
 10
6310.769483
 20
4570.813629
 40
1.0
 50
270.0
 51
0.0
  0
ARC
  8
001
 10
6297.769483
 20
4559.613629
 40
1.0
 50
90.0
 51
180.0
  0
ARC
  8
001
 10
6310.769483
 20
4559.613629
 40
1.0
 50
0.0
 51
90.0
  0
ARC
  8
001
 10
6297.769483
 20
4558.313629
 40
1.0
 50
180.0
 51
270.0
  0
ARC
  8
001
 10
6310.769483
 20
4558.313629
 40
1.0
 50
270.0
 51
0.0
  0
ARC
  8
001
 10
6297.769483
 20
4532.113629
 40
1.0
 50
90.0
 51
180.0
  0
ARC
  8
001
 10
6310.769483
 20
4532.113629
 40
1.0
 50
0.0
 51
90.0
  0
ARC
  8
001
 10
6310.769483
 20
4518.313629
 40
1.0
 50
270.0
 51
0.0
  0
ARC
  8
001
 10
6297.769483
 20
4518.313629
 40
1.0
 50
180.0
 51
270.0
  0
ARC
  8
001
 10
6297.769483
 20
4492.113629
 40
1.0
 50
90.0
 51
180.0
  0
ARC
  8
001
 10
6310.769483
 20
4492.113629
 40
1.0
 50
0.0
 51
90.0
  0
ARC
  8
001
 10
6310.769483
 20
4490.813629
 40
1.0
 50
270.0
 51
0.0
  0
ARC
  8
001
 10
6297.769483
 20
4490.813629
 40
1.0
 50
180.0
 51
270.0
  0
ARC
  8
001
 10
6297.769483
 20
4530.813629
 40
1.0
 50
180.0
 51
270.0
  0
ARC
  8
001
 10
6310.769483
 20
4530.813629
 40
1.0
 50
270.0
 51
0.0
  0
ARC
  8
001
 10
6297.769483
 20
4519.613629
 40
1.0
 50
90.0
 51
180.0
  0
ARC
  8
001
 10
6310.769483
 20
4519.613629
 40
1.0
 50
0.0
 51
90.0
  0
ARC
  8
001
 10
6297.769483
 20
4479.613629
 40
1.0
 50
90.0
 51
180.0
  0
ARC
  8
001
 10
6310.769483
 20
4479.613629
 40
1.0
 50
0.0
 51
90.0
  0
ARC
  8
001
 10
6310.769483
 20
4478.313629
 40
1.0
 50
270.0
 51
0.0
  0
ARC
  8
001
 10
6297.769483
 20
4478.313629
 40
1.0
 50
180.0
 51
270.0
  0
ARC
  8
001
 10
6297.769483
 20
4452.113629
 40
1.0
 50
90.0
 51
180.0
  0
ARC
  8
001
 10
6310.769483
 20
4452.113629
 40
1.0
 50
0.0
 51
90.0
  0
ARC
  8
001
 10
6310.769483
 20
4450.813629
 40
1.0
 50
270.0
 51
0.0
  0
ARC
  8
001
 10
6297.769483
 20
4450.813629
 40
1.0
 50
180.0
 51
270.0
  0
ARC
  8
001
 10
6297.769483
 20
4439.613629
 40
1.0
 50
90.0
 51
180.0
  0
ARC
  8
001
 10
6310.769483
 20
4439.613629
 40
1.0
 50
0.0
 51
90.0
  0
ARC
  8
001
 10
6310.769483
 20
4438.313629
 40
1.0
 50
270.0
 51
0.0
  0
ARC
  8
001
 10
6297.769483
 20
4438.313629
 40
1.0
 50
180.0
 51
270.0
  0
ARC
  8
001
 10
6297.769483
 20
4412.113629
 40
1.0
 50
90.0
 51
180.0
  0
ARC
  8
001
 10
6310.769483
 20
4412.113629
 40
1.0
 50
0.0
 51
90.0
  0
ARC
  8
001
 10
6310.769483
 20
4410.813629
 40
1.0
 50
270.0
 51
0.0
  0
ARC
  8
001
 10
6297.769483
 20
4410.813629
 40
1.0
 50
180.0
 51
270.0
  0
ARC
  8
001
 10
6297.769483
 20
4399.613629
 40
1.0
 50
90.0
 51
180.0
  0
ARC
  8
001
 10
6310.769483
 20
4399.613629
 40
1.0
 50
0.0
 51
90.0
  0
ARC
  8
001
 10
6310.769483
 20
4398.313629
 40
1.0
 50
270.0
 51
0.0
  0
ARC
  8
001
 10
6297.769483
 20
4398.313629
 40
1.0
 50
180.0
 51
270.0
  0
ARC
  8
001
 10
6297.769483
 20
4370.813629
 40
1.0
 50
180.0
 51
270.0
  0
ARC
  8
001
 10
6297.769483
 20
4372.113629
 40
1.0
 50
90.0
 51
180.0
  0
ARC
  8
001
 10
6310.769483
 20
4372.113629
 40
1.0
 50
0.0
 51
90.0
  0
ARC
  8
001
 10
6310.769483
 20
4370.813629
 40
1.0
 50
270.0
 51
0.0
  0
LINE
  8
001
 10
6297.769483
 20
4557.313629
 11
6310.769483
 21
4557.313629
  0
LINE
  8
001
 10
6297.769483
 20
4533.113629
 11
6310.769483
 21
4533.113629
  0
LINE
  8
001
 10
6297.769483
 20
4517.313629
 11
6310.769483
 21
4517.313629
  0
LINE
  8
001
 10
6297.769483
 20
4493.113629
 11
6310.769483
 21
4493.113629
  0
LINE
  8
001
 10
6297.769483
 20
4477.313629
 11
6310.769483
 21
4477.313629
  0
LINE
  8
001
 10
6297.769483
 20
4453.113629
 11
6310.769483
 21
4453.113629
  0
LINE
  8
001
 10
6297.769483
 20
4437.313629
 11
6310.769483
 21
4437.313629
  0
LINE
  8
001
 10
6297.769483
 20
4413.113629
 11
6310.769483
 21
4413.113629
  0
LINE
  8
001
 10
6297.769483
 20
4397.313629
 11
6310.769483
 21
4397.313629
  0
LINE
  8
001
 10
6297.769483
 20
4373.113629
 11
6310.769483
 21
4373.113629
  0
LINE
  8
001
 10
6311.769483
 20
4570.813629
 11
6311.769483
 21
4570.213629
  0
LINE
  8
001
 10
6296.769483
 20
4570.813629
 11
6296.769483
 21
4570.213629
  0
ARC
  8
001
 10
6297.769483
 20
4359.613629
 40
1.0
 50
90.0
 51
180.0
  0
ARC
  8
001
 10
6310.769483
 20
4359.613629
 40
1.0
 50
0.0
 51
90.0
  0
LINE
  8
001
 10
6297.769483
 20
4529.813629
 11
6310.769483
 21
4529.813629
  0
LINE
  8
001
 10
6297.769483
 20
4520.613629
 11
6310.769483
 21
4520.613629
  0
LINE
  8
001
 10
6297.769483
 20
4489.813629
 11
6310.769483
 21
4489.813629
  0
LINE
  8
001
 10
6297.769483
 20
4480.613629
 11
6310.769483
 21
4480.613629
  0
LINE
  8
001
 10
6297.769483
 20
4449.813629
 11
6310.769483
 21
4449.813629
  0
LINE
  8
001
 10
6297.769483
 20
4440.613629
 11
6310.769483
 21
4440.613629
  0
LINE
  8
001
 10
6297.769483
 20
4409.813629
 11
6310.769483
 21
4409.813629
  0
LINE
  8
001
 10
6297.769483
 20
4400.613629
 11
6310.769483
 21
4400.613629
  0
LINE
  8
001
 10
6297.769483
 20
4369.813629
 11
6310.769483
 21
4369.813629
  0
LINE
  8
001
 10
6297.769483
 20
4360.613629
 11
6310.769483
 21
4360.613629
  0
LINE
  8
001
 10
6302.769483
 20
4533.113629
 11
6302.769483
 21
4557.313629
  0
LINE
  8
001
 10
6305.769483
 20
4533.113629
 11
6305.769483
 21
4557.313629
  0
LINE
  8
001
 10
6302.769483
 20
4493.113629
 11
6302.769483
 21
4517.313629
  0
LINE
  8
001
 10
6305.769483
 20
4493.113629
 11
6305.769483
 21
4517.313629
  0
LINE
  8
001
 10
6302.769483
 20
4453.113629
 11
6302.769483
 21
4477.313629
  0
LINE
  8
001
 10
6305.769483
 20
4453.113629
 11
6305.769483
 21
4477.313629
  0
LINE
  8
001
 10
6302.769483
 20
4373.113629
 11
6302.769483
 21
4397.313629
  0
LINE
  8
001
 10
6302.769483
 20
4413.113629
 11
6302.769483
 21
4437.313629
  0
LINE
  8
001
 10
6305.769483
 20
4373.113629
 11
6305.769483
 21
4397.313629
  0
LINE
  8
001
 10
6305.769483
 20
4413.113629
 11
6305.769483
 21
4437.313629
  0
LINE
  8
001
  6
CENTER
 62
     4
 10
6304.269483
 20
4582.463629
 11
6304.269483
 21
4347.963629
  0
LINE
  8
001
  6
CENTER
 62
     4
 10
5692.628143
 20
3206.925235
 11
6916.855303
 21
3206.925235
  0
LINE
  8
001
  6
CENTER
 62
     4
 10
5684.212012
 20
4465.213629
 11
6920.73968
 21
4465.213629
  0
LINE
  8
001
  6
CENTER
 62
     4
 10
6304.269483
 20
3556.770407
 11
6304.269483
 21
4061.452541
  0
LINE
  8
001
 10
6884.269483
 20
3811.452541
 11
5724.269483
 21
3811.452541
  0
LINE
  8
001
 10
6884.269483
 20
3578.452541
 11
5724.269483
 21
3578.452541
  0
LINE
  8
001
  6
CENTER
 62
     4
 10
6884.269483
 20
3806.452541
 11
5724.269483
 21
3806.452541
  0
LINE
  8
001
  6
CENTER
 62
     4
 10
6884.269483
 20
3573.452541
 11
5724.269483
 21
3573.452541
  0
LINE
  8
001
 10
5724.269483
 20
4570.213629
 11
6296.969483
 21
4570.213629
  0
LINE
  8
001
 10
5724.269483
 20
4560.213629
 11
6296.969483
 21
4560.213629
  0
LINE
  8
001
 10
5724.269483
 20
4530.213629
 11
6296.969483
 21
4530.213629
  0
LINE
  8
001
 10
5724.269483
 20
4520.213629
 11
6296.969483
 21
4520.213629
  0
LINE
  8
001
 10
5724.269483
 20
4490.213629
 11
6296.969483
 21
4490.213629
  0
LINE
  8
001
 10
5724.269483
 20
4480.213629
 11
6296.969483
 21
4480.213629
  0
LINE
  8
001
 10
5724.269483
 20
4450.213629
 11
6296.969483
 21
4450.213629
  0
LINE
  8
001
 10
5724.269483
 20
4440.213629
 11
6296.969483
 21
4440.213629
  0
LINE
  8
001
 10
5724.269483
 20
4410.213629
 11
6296.969483
 21
4410.213629
  0
LINE
  8
001
 10
5724.269483
 20
4400.213629
 11
6296.969483
 21
4400.213629
  0
LINE
  8
001
 10
5724.269483
 20
4370.213629
 11
6296.969483
 21
4370.213629
  0
LINE
  8
001
 10
5724.269483
 20
4360.213629
 11
6296.969483
 21
4360.213629
  0
LINE
  8
001
 10
6884.269483
 20
4570.213629
 11
6311.569483
 21
4570.213629
  0
LINE
  8
001
 10
6884.269483
 20
4560.213629
 11
6311.569483
 21
4560.213629
  0
LINE
  8
001
 10
6884.269483
 20
4530.213629
 11
6311.569483
 21
4530.213629
  0
LINE
  8
001
 10
6884.269483
 20
4520.213629
 11
6311.569483
 21
4520.213629
  0
LINE
  8
001
 10
6884.269483
 20
4490.213629
 11
6311.569483
 21
4490.213629
  0
LINE
  8
001
 10
6884.269483
 20
4480.213629
 11
6311.569483
 21
4480.213629
  0
LINE
  8
001
 10
6884.269483
 20
4450.213629
 11
6311.569483
 21
4450.213629
  0
LINE
  8
001
 10
6884.269483
 20
4440.213629
 11
6311.569483
 21
4440.213629
  0
LINE
  8
001
 10
6884.269483
 20
4410.213629
 11
6311.569483
 21
4410.213629
  0
LINE
  8
001
 10
6884.269483
 20
4400.213629
 11
6311.569483
 21
4400.213629
  0
LINE
  8
001
 10
6884.269483
 20
4370.213629
 11
6311.569483
 21
4370.213629
  0
LINE
  8
001
 10
6884.269483
 20
4360.213629
 11
6311.569483
 21
4360.213629
  0
LINE
  8
001
  6
CENTER
 62
     4
 10
5724.269483
 20
4565.213629
 11
6884.269483
 21
4565.213629
  0
LINE
  8
001
  6
CENTER
 62
     4
 10
5724.269483
 20
4525.213629
 11
6884.269483
 21
4525.213629
  0
LINE
  8
001
  6
CENTER
 62
     4
 10
5724.269483
 20
4485.213629
 11
6884.269483
 21
4485.213629
  0
LINE
  8
001
  6
CENTER
 62
     4
 10
5724.269483
 20
4445.213629
 11
6884.269483
 21
4445.213629
  0
LINE
  8
001
  6
CENTER
 62
     4
 10
5724.269483
 20
4405.213629
 11
6884.269483
 21
4405.213629
  0
LINE
  8
001
  6
CENTER
 62
     4
 10
5724.269483
 20
4365.213629
 11
6884.269483
 21
4365.213629
  0
TEXT
  8
001
 10
7152.360527
 20
3363.73723
 40
20.0
  1
8
  0
TEXT
  8
001
 10
7189.860527
 20
3328.737225
 40
20.0
  1
パイプ受枠（Ｂ）
 41
0.833333
  0
TEXT
  8
001
 10
7189.860527
 20
3363.73723
 40
20.0
  1
中間押え（Ｂ）
 41
0.833333
  0
LINE
  8
001
 10
6903.269483
 20
3091.925235
 11
6885.269483
 21
3091.925235
  0
ARC
  8
001
 10
6885.269483
 20
3092.925235
 40
1.0
 50
180.0
 51
270.0
  0
ARC
  8
001
 10
6903.269483
 20
3092.925235
 40
1.0
 50
270.0
 51
0.0
  0
POLYLINE
  8
001
 66
     1
  0
VERTEX
  8
001
 10
6915.986786
 20
3161.664916
  0
VERTEX
  8
001
 10
6913.890589
 20
3160.049085
  0
VERTEX
  8
001
 10
6911.748048
 20
3158.512183
  0
VERTEX
  8
001
 10
6909.512819
 20
3157.133139
  0
VERTEX
  8
001
 10
6907.430656
 20
3156.095729
  0
VERTEX
  8
001
 10
6905.263861
 20
3155.223689
  0
VERTEX
  8
001
 10
6903.036581
 20
3154.497129
  0
VERTEX
  8
001
 10
6900.772963
 20
3153.896156
  0
VERTEX
  8
001
 10
6898.500014
 20
3153.39577
  0
VERTEX
  8
001
 10
6896.222764
 20
3152.943591
  0
VERTEX
  8
001
 10
6893.949045
 20
3152.482647
  0
VERTEX
  8
001
 10
6891.686687
 20
3151.955964
  0
VERTEX
  8
001
 10
6889.443521
 20
3151.306569
  0
VERTEX
  8
001
 10
6886.480603
 20
3150.165116
  0
VERTEX
  8
001
 10
6883.63543
 20
3148.709704
  0
VERTEX
  8
001
 10
6880.976923
 20
3146.951032
  0
VERTEX
  8
001
 10
6878.574002
 20
3144.899802
  0
VERTEX
  8
001
 10
6876.495588
 20
3142.566714
  0
VERTEX
  8
001
 10
6875.081294
 20
3140.499459
  0
VERTEX
  8
001
 10
6873.820442
 20
3138.32017
  0
VERTEX
  8
001
 10
6872.611208
 20
3136.092747
  0
VERTEX
  8
001
 10
6871.333019
 20
3133.789504
  0
VERTEX
  8
001
 10
6870.056138
 20
3131.487866
  0
VERTEX
  8
001
 10
6868.835694
 20
3129.172536
  0
VERTEX
  8
001
 10
6867.726817
 20
3126.828215
  0
VERTEX
  8
001
 10
6866.784637
 20
3124.439607
  0
VERTEX
  8
001
 10
6865.982117
 20
3121.729234
  0
VERTEX
  8
001
 10
6865.402836
 20
3118.947813
  0
VERTEX
  8
001
 10
6864.998226
 20
3116.097305
  0
VERTEX
  8
001
 10
6864.71972
 20
3113.179674
  0
VERTEX
  8
001
 10
6864.518749
 20
3110.196879
  0
VERTEX
  8
001
 10
6864.350159
 20
3107.788646
  0
VERTEX
  8
001
 10
6863.988945
 20
3105.477067
  0
VERTEX
  8
001
 10
6863.223956
 20
3103.399214
  0
VERTEX
  8
001
 10
6861.925132
 20
3101.657336
  0
VERTEX
  8
001
 10
6860.226969
 20
3100.14534
  0
VERTEX
  8
001
 10
6858.336602
 20
3098.727408
  0
VERTEX
  8
001
 10
6856.461167
 20
3097.267719
  0
VERTEX
  8
001
 10
6854.807799
 20
3095.630454
  0
VERTEX
  8
001
 10
6853.637076
 20
3093.894524
  0
VERTEX
  8
001
 10
6852.791976
 20
3091.960429
  0
VERTEX
  8
001
 10
6852.240909
 20
3089.890835
  0
VERTEX
  8
001
 10
6851.952284
 20
3087.748405
  0
VERTEX
  8
001
 10
6851.894514
 20
3085.595805
  0
VERTEX
  8
001
 10
6852.037288
 20
3083.444103
  0
VERTEX
  8
001
 10
6852.335141
 20
3081.333255
  0
VERTEX
  8
001
 10
6852.736377
 20
3079.249643
  0
VERTEX
  8
001
 10
6853.189307
 20
3077.179648
  0
SEQEND
  8
001
  0
CIRCLE
  8
001
 10
6894.269483
 20
3146.925235
 40
2.15
  0
CIRCLE
  8
001
 10
6894.269483
 20
3106.925235
 40
2.15
  0
CIRCLE
  8
001
 10
6894.269483
 20
3106.925235
 40
2.5
  0
CIRCLE
  8
001
 10
6894.269483
 20
3146.925235
 40
2.5
  0
LINE
  8
001
  6
CENTER
 62
     4
 10
6894.269483
 20
3140.988811
 11
6894.269483
 21
3152.550383
  0
LINE
  8
001
  6
CENTER
 62
     4
 10
6888.998475
 20
3146.925235
 11
6899.842381
 21
3146.925235
  0
LINE
  8
001
  6
CENTER
 62
     4
 10
6894.269483
 20
3112.05824
 11
6894.269483
 21
3102.185472
  0
LINE
  8
001
  6
CENTER
 62
     4
 10
6888.998479
 20
3106.925235
 11
6899.680524
 21
3106.925235
  0
LINE
  8
001
  6
CENTER
 62
     4
 10
6304.269483
 20
3331.748321
 11
6304.269483
 21
3078.616189
  0
LINE
  8
001
 10
7806.164717
 20
3558.452541
 11
7802.164717
 21
3558.452541
  0
LINE
  8
001
 10
7801.164717
 20
3559.452541
 11
7801.164717
 21
3561.452541
  0
LINE
  8
001
 10
7807.164717
 20
3559.452541
 11
7807.164717
 21
3561.452541
  0
ARC
  8
001
 10
7802.164717
 20
3559.452541
 40
1.0
 50
180.0
 51
270.0
  0
ARC
  8
001
 10
7806.164717
 20
3559.452541
 40
1.0
 50
270.0
 51
0.0
  0
LINE
  8
001
  6
CENTER
 62
     4
 10
7804.164717
 20
3551.600719
 11
7804.164717
 21
3563.822073
  0
LINE
  8
001
 10
7916.164717
 20
3558.452541
 11
7912.164717
 21
3558.452541
  0
ARC
  8
001
 10
7912.164717
 20
3559.452541
 40
1.0
 50
180.0
 51
270.0
  0
ARC
  8
001
 10
7916.164717
 20
3559.452541
 40
1.0
 50
270.0
 51
0.0
  0
LINE
  8
001
 10
7911.164717
 20
3559.452541
 11
7911.164717
 21
3561.452541
  0
LINE
  8
001
 10
7917.164717
 20
3559.452541
 11
7917.164717
 21
3561.452541
  0
LINE
  8
001
  6
CENTER
 62
     4
 10
7914.164717
 20
3553.886345
 11
7914.164717
 21
3565.458567
  0
TEXT
  8
001
 10
7734.860527
 20
3045.612245
 40
20.0
  1
SK600,900,1200-2
 41
1.2
  0
TEXT
  8
001
 10
7734.860527
 20
3004.362245
 40
20.0
  1
パイプラック２段用組立図
 41
0.833333
  0
TEXT
  8
001
 10
7189.860527
 20
3153.73727
 40
20.0
  1
フレーム（２段用）
 41
0.833333
  0
LINE
  8
001
 10
7382.471515
 20
4435.006932
 11
7385.995634
 21
4438.531051
  0
LINE
  8
001
 10
7375.400447
 20
4435.006932
 11
7385.995634
 21
4445.602119
  0
LINE
  8
001
 10
7368.329379
 20
4435.006932
 11
7385.995634
 21
4452.673186
  0
LINE
  8
001
 10
7361.258311
 20
4435.006932
 11
7385.995634
 21
4459.744254
  0
LINE
  8
001
 10
7354.816801
 20
4435.636489
 11
7383.898198
 21
4464.717887
  0
LINE
  8
001
 10
7352.245634
 20
4440.13639
 11
7379.415321
 21
4467.306077
  0
LINE
  8
001
 10
7352.245634
 20
4447.207458
 11
7360.045108
 21
4455.006932
  0
LINE
  8
001
 10
7368.495634
 20
4463.457458
 11
7378.495634
 21
4473.457458
  0
LINE
  8
001
 10
7368.495634
 20
4470.528526
 11
7378.495634
 21
4480.528526
  0
LINE
  8
001
 10
7368.495634
 20
4477.599593
 11
7378.495634
 21
4487.599593
  0
LINE
  8
001
 10
7368.495634
 20
4484.670661
 11
7378.495634
 21
4494.670661
  0
LINE
  8
001
 10
7368.495634
 20
4491.741729
 11
7378.495634
 21
4501.741729
  0
LINE
  8
001
 10
7368.495634
 20
4498.812797
 11
7378.495634
 21
4508.812797
  0
LINE
  8
001
 10
7368.495634
 20
4505.883865
 11
7378.495634
 21
4515.883865
  0
LINE
  8
001
 10
7368.495634
 20
4512.954932
 11
7378.495634
 21
4522.954932
  0
LINE
  8
001
 10
7368.49567
 20
4520.026037
 11
7373.476529
 21
4525.006895
  0
LINE
  8
001
 10
7446.111125
 20
4435.006932
 11
7452.245634
 21
4441.141441
  0
LINE
  8
001
 10
7439.040057
 20
4435.006932
 11
7452.245634
 21
4448.212508
  0
LINE
  8
001
 10
7431.96899
 20
4435.006932
 11
7452.245634
 21
4455.283576
  0
LINE
  8
001
 10
7424.897922
 20
4435.006932
 11
7452.245634
 21
4462.354644
  0
LINE
  8
001
 10
7418.495634
 20
4435.675712
 11
7452.245634
 21
4469.425712
  0
LINE
  8
001
 10
7418.495634
 20
4442.74678
 11
7452.245634
 21
4476.49678
  0
LINE
  8
001
 10
7418.495634
 20
4449.817847
 11
7452.245634
 21
4483.567847
  0
LINE
  8
001
 10
7418.495634
 20
4456.888915
 11
7452.245634
 21
4490.638915
  0

LINE
  8
001
 10
7425.995634
 20
4471.459983
 11
7452.245634
 21
4497.709983
  0
LINE
  8
001
 10
7425.995634
 20
4478.531051
 11
7452.245634
 21
4504.781051
  0
LINE
  8
001
 10
7425.995634
 20
4485.602119
 11
7452.245634
 21
4511.852119
  0
LINE
  8
001
 10
7425.995634
 20
4492.673186
 11
7452.245634
 21
4518.923186
  0
LINE
  8
001
 10
7425.995634
 20
4499.744254
 11
7450.252872
 21
4524.001493
  0
LINE
  8
001
 10
7425.995634
 20
4506.815322
 11
7444.187244
 21
4525.006932
  0
LINE
  8
001
 10
7425.995634
 20
4513.88639
 11
7437.116176
 21
4525.006932
  0
LINE
  8
001
 10
7425.995634
 20
4520.957458
 11
7430.045108
 21
4525.006932
  0
LINE
  8
001
 10
7800.0978
 20
4435.440216
 11
7805.420497
 21
4440.762913
  0
LINE
  8
001
 10
7793.026732
 20
4435.440216
 11
7805.420497
 21
4447.833981
  0
LINE
  8
001
 10
7760.955664
 20
4410.440216
 11
7770.420497
 21
4419.905048
  0
LINE
  8
001
 10
7785.955664
 20
4435.440216
 11
7805.420497
 21
4454.905048
  0
LINE
  8
001
 10
7753.884596
 20
4410.440216
 11
7770.420497
 21
4426.976116
  0
LINE
  8
001
 10
7778.884596
 20
4435.440216
 11
7805.420497
 21
4461.976116
  0
LINE
  8
001
 10
7746.813529
 20
4410.440216
 11
7770.424616
 21
4434.051303
  0
LINE
  8
001
 10
7771.80941
 20
4435.436097
 11
7805.420497
 21
4469.047184
  0
LINE
  8
001
 10
7741.562236
 20
4412.259992
 11
7784.742461
 21
4455.440216
  0
LINE
  8
001
 10
7790.420497
 20
4461.118252
 11
7805.420497
 21
4476.118252
  0
LINE
  8
001
 10
7740.420497
 20
4418.18932
 11
7777.671393
 21
4455.440216
  0
LINE
  8
001
 10
7790.420497
 20
4468.18932
 11
7805.420497
 21
4483.18932
  0
LINE
  8
001
 10
7740.420497
 20
4425.260388
 11
7770.600325
 21
4455.440216
  0
LINE
  8
001
 10
7790.420497
 20
4475.260388
 11
7805.420497
 21
4490.260388
  0
LINE
  8
001
 10
7740.420497
 20
4432.331455
 11
7763.529257
 21
4455.440216
  0
LINE
  8
001
 10
7790.420497
 20
4482.331455
 11
7805.420497
 21
4497.331455
  0
LINE
  8
001
 10
7736.45819
 20
4435.440216
 11
7756.45819
 21
4455.440216
  0
LINE
  8
001
 10
7790.420497
 20
4489.402523
 11
7805.420497
 21
4504.402523
  0
LINE
  8
001
 10
7729.387122
 20
4435.440216
 11
7749.387122
 21
4455.440216
  0
LINE
  8
001
 10
7790.420497
 20
4496.473591
 11
7805.420497
 21
4511.473591
  0
LINE
  8
001
 10
7722.316054
 20
4435.440216
 11
7742.316054
 21
4455.440216
  0
LINE
  8
001
 10
7790.420497
 20
4503.544659
 11
7805.420497
 21
4518.544659
  0
LINE
  8
001
 10
7715.244986
 20
4435.440216
 11
7735.244986
 21
4455.440216
  0
LINE
  8
001
 10
7790.420497
 20
4510.615727
 11
7803.867186
 21
4524.062416
  0
LINE
  8
001
 10
7708.540727
 20
4435.807024
 11
7728.173918
 21
4455.440216
  0
LINE
  8
001
 10
7790.420497
 20
4517.686794
 11
7798.173918
 21
4525.440216
  0
LINE
  8
001
 10
7705.461766
 20
4439.799131
 11
7721.102851
 21
4455.440216
  0
LINE
  8
001
 10
7790.420497
 20
4524.757862
 11
7791.102851
 21
4525.440216
  0
LINE
  8
001
 10
7705.420497
 20
4446.82893
 11
7714.031783
 21
4455.440216
  0
LINE
  8
001
 10
6897.769483
 20
3161.425235
 11
6897.769483
 21
3172.425235
  0
LINE
  8
001
 10
6890.769483
 20
3161.425235
 11
6890.769483
 21
3172.425235
  0
LINE
  8
001
  6
CENTER
 62
     4
 10
6884.269483
 20
3186.925235
 11
6311.769483
 21
3186.925235
  0
LINE
  8
001
  6
CENTER
 62
     4
 10
6884.269483
 20
3226.925235
 11
6311.769483
 21
3226.925235
  0
LINE
  8
001
  6
CENTER
 62
     4
 10
6884.269483
 20
3266.925235
 11
6311.769483
 21
3266.925235
  0
LINE
  8
001
  6
CENTER
 62
     4
 10
6884.269483
 20
3306.925235
 11
6311.769483
 21
3306.925235
  0
LINE
  8
001
  6
CENTER
 62
     4
 10
6884.269483
 20
3146.925235
 11
6311.769483
 21
3146.925235
  0
LINE
  8
001
  6
CENTER
 62
     4
 10
6884.269483
 20
3106.925235
 11
6311.769483
 21
3106.925235
  0
LINE
  8
001
 10
6884.269483
 20
3311.925235
 11
6311.769483
 21
3311.925235
  0
LINE
  8
001
 10
6884.269483
 20
3301.925235
 11
6311.769483
 21
3301.925235
  0
LINE
  8
001
 10
6884.269483
 20
3271.925235
 11
6311.769483
 21
3271.925235
  0
LINE
  8
001
 10
6884.269483
 20
3261.925235
 11
6311.769483
 21
3261.925235
  0
LINE
  8
001
 10
6884.269483
 20
3231.925235
 11
6311.769483
 21
3231.925235
  0
LINE
  8
001
 10
6884.269483
 20
3221.925235
 11
6311.769483
 21
3221.925235
  0
LINE
  8
001
 10
6884.269483
 20
3191.925235
 11
6311.769483
 21
3191.925235
  0
LINE
  8
001
 10
6884.269483
 20
3181.925235
 11
6311.769483
 21
3181.925235
  0
LINE
  8
001
 10
6884.269483
 20
3151.925235
 11
6311.769483
 21
3151.925235
  0
LINE
  8
001
 10
6884.269483
 20
3141.925235
 11
6311.769483
 21
3141.925235
  0
LINE
  8
001
 10
6884.269483
 20
3111.925235
 11
6311.769483
 21
3111.925235
  0
LINE
  8
001
 10
6884.269483
 20
3101.925235
 11
6311.769483
 21
3101.925235
  0
LINE
  8
001
  6
CENTER
 62
     4
 10
5724.269483
 20
3306.925235
 11
6296.769483
 21
3306.925235
  0
LINE
  8
001
  6
CENTER
 62
     4
 10
5724.269483
 20
3266.925235
 11
6296.769483
 21
3266.925235
  0
LINE
  8
001
  6
CENTER
 62
     4
 10
5724.269483
 20
3226.925235
 11
6296.769483
 21
3226.925235
  0
LINE
  8
001
  6
CENTER
 62
     4
 10
5724.269483
 20
3186.925235
 11
6296.769483
 21
3186.925235
  0
LINE
  8
001
  6
CENTER
 62
     4
 10
5724.269483
 20
3146.925235
 11
6296.769483
 21
3146.925235
  0
LINE
  8
001
  6
CENTER
 62
     4
 10
5724.269483
 20
3106.925235
 11
6296.769483
 21
3106.925235
  0
LINE
  8
001
 10
5724.269483
 20
3311.925235
 11
6296.769483
 21
3311.925235
  0
LINE
  8
001
 10
5724.269483
 20
3301.925235
 11
6296.769483
 21
3301.925235
  0
LINE
  8
001
 10
5724.269483
 20
3271.925235
 11
6296.769483
 21
3271.925235
  0
LINE
  8
001
 10
5724.269483
 20
3261.925235
 11
6296.769483
 21
3261.925235
  0
LINE
  8
001
 10
5724.269483
 20
3231.925235
 11
6296.769483
 21
3231.925235
  0
LINE
  8
001
 10
5724.269483
 20
3221.925235
 11
6296.769483
 21
3221.925235
  0
LINE
  8
001
 10
5724.269483
 20
3191.925235
 11
6296.769483
 21
3191.925235
  0
LINE
  8
001
 10
5724.269483
 20
3181.925235
 11
6296.769483
 21
3181.925235
  0
LINE
  8
001
 10
5724.269483
 20
3151.925235
 11
6296.769483
 21
3151.925235
  0
LINE
  8
001
 10
5724.269483
 20
3141.925235
 11
6296.769483
 21
3141.925235
  0
LINE
  8
001
 10
5724.269483
 20
3111.925235
 11
6296.769483
 21
3111.925235
  0
LINE
  8
001
 10
5724.269483
 20
3101.925235
 11
6296.769483
 21
3101.925235
  0
LINE
  8
001
 10
5717.769483
 20
3161.425235
 11
5717.769483
 21
3172.425235
  0
LINE
  8
001
 10
5710.769483
 20
3161.425235
 11
5710.769483
 21
3172.425235
  0
LINE
  8
001
  6
CENTER
 62
     4
 10
7493.901944
 20
3613.952541
 11
7506.715353
 21
3613.952541
  0
LINE
  8
001
  6
CENTER
 62
     4
 10
6846.818417
 20
4096.6391
 11
6846.818417
 21
3543.20518
  0
TEXT
  8
001
 10
7644.860527
 20
3328.737225
 40
20.0
  1
指定色
 41
0.833333
  0
TEXT
  8
001
 10
7644.860527
 20
3363.73723
 40
20.0
  1
指定色
 41
0.833333
  0
TEXT
  8
001
 10
7644.860527
 20
3258.737215
 40
20.0
  1
光沢バレル
 41
0.833333
  0
TEXT
  8
001
 10
7644.860527
 20
3188.73723
 40
20.0
  1
指定色
 41
0.833333
  0
TEXT
  8
001
 10
7644.860527
 20
3118.737245
 40
20.0
  1
指定色
 41
0.833333
  0
TEXT
  8
001
 10
7607.360827
 20
3258.737215
 40
20.0
  1
4
  0
TEXT
  8
001
 10
7607.360827
 20
3293.73722
 40
20.0
  1
8
  0
TEXT
  8
001
 10
7597.360827
 20
3223.737235
 40
20.0
  1
11
 41
1.499999
  0
TEXT
  8
001
 10
7607.360527
 20
3118.737245
 40
20.0
  1
2
  0
TEXT
  8
001
 10
7607.360827
 20
3328.737225
 40
20.0
  1
2
  0
TEXT
  8
001
 10
7607.360827
 20
3153.73727
 40
20.0
  1
2
  0
LINE
  8
001
 10
7540.487722
 20
3549.540363
 11
7540.487722
 21
3461.211785
  0
LINE
  8
001
 10
7532.549743
 20
3549.540363
 11
7532.549743
 21
3461.211785
  0
TEXT
  8
001
 62
     4
 10
7518.86859
 20
3466.109067
 40
20.0
  1
42.5
 50
90.000003
 41
1.2
  0
LINE
  8
001
 10
7540.487722
 20
3844.588444
 11
7540.487722
 21
3779.228659
  0
LINE
  8
001
 10
7532.549743
 20
3844.588444
 11
7532.549743
 21
3779.228659
  0
TEXT
  8
001
 62
     4
 10
7546.735965
 20
3850.499005
 40
20.0
  1
405
 50
90.000003
 41
1.058824
  0
POLYLINE
  8
001
 62
     4
 66
     1
  0
VERTEX
  8
001
 62
     4
 10
7545.892209
 20
3430.303749
  0
VERTEX
  8
001
 62
     4
 10
7545.892209
 20
3455.303749
  0
VERTEX
  8
001
 62
     4
 10
7524.241574
 20
3442.803749
  0
VERTEX
  8
001
 62
     4
 10
7545.892209
 20
3430.303749
  0
SEQEND
  8
001
  0
TEXT
  8
001
 62
     4
 10
7543.67533
 20
3437.803749
 40
10.0
  1
1
 50
90.000003
 41
1.499999
  0
POLYLINE
  8
001
 62
     4
 66
     1
  0
VERTEX
  8
001
 62
     4
 10
7546.22986
 20
3746.801102
  0
VERTEX
  8
001
 62
     4
 10
7546.22986
 20
3771.801102
  0
VERTEX
  8
001
 62
     4
 10
7524.579225
 20
3759.301102
  0
VERTEX
  8
001
 62
     4
 10
7546.22986
 20
3746.801102
  0
SEQEND
  8
001
  0
TEXT
  8
001
 62
     4
 10
7544.012982
 20
3754.301102
 40
10.0
  1
1
 50
90.000003
 41
1.499999
  0
POLYLINE
  8
001
 62
     4
 66
     1
  0
VERTEX
  8
001
 62
     4
 10
7364.860527
 20
4793.737245
  0
VERTEX
  8
001
 62
     4
 10
7389.860527
 20
4793.737245
  0
VERTEX
  8
001
 62
     4
 10
7377.360527
 20
4815.38788
  0
VERTEX
  8
001
 62
     4
 10
7364.860527
 20
4793.737245
  0
SEQEND
  8
001
  0
TEXT
  8
001
 62
     4
 10
7372.360527
 20
4795.954123
 40
10.0
  1
1
 41
1.499999
  0
POLYLINE
  8
001
 62
     4
 66
     1
  0
VERTEX
  8
001
 62
     4
 10
6903.55687
 20
3115.148676
  0
VERTEX
  8
001
 62
     4
 10
6896.206565
 20
3107.858086
  0
VERTEX
  8
001
 62
     4
 10
6906.21741
 20
3110.49677
  0
SEQEND
  8
001
  0
LINE
  8
001
 62
     4
 10
6896.206565
 20
3107.858086
 11
6921.077257
 21
3122.082253
  0
CIRCLE
  8
001
 62
     4
 10
6942.778695
 20
3134.493844
 40
25.0
  0
TEXT
  8
001
 62
     4
 10
6927.778695
 20
3119.493844
 40
30.0
  1
6
  0
POLYLINE
  8
001
 62
     4
 66
     1
  0
VERTEX
  8
001
 62
     4
 10
7748.060328
 20
3819.788485
  0
VERTEX
  8
001
 62
     4
 10
7746.361411
 20
3809.576073
  0
VERTEX
  8
001
 62
     4
 10
7752.938922
 20
3817.570822
  0
SEQEND
  8
001
  0
LINE
  8
001
 62
     4
 10
7746.361411
 20
3809.576073
 11
7756.246533
 21
3831.322166
  0
CIRCLE
  8
001
 62
     4
 10
7766.59207
 20
3854.081118
 40
25.0
  0
TEXT
  8
001
 62
     4
 10
7751.59207
 20
3839.081118
 40
30.0
  1
3
  0
POLYLINE
  8
001
 62
     4
 66
     1
  0
VERTEX
  8
001
 62
     4
 10
6911.550926
 20
3606.610751
  0
VERTEX
  8
001
 62
     4
 10
6904.269483
 20
3599.251386
  0
VERTEX
  8
001
 62
     4
 10
6914.25508
 20
3601.984062
  0
SEQEND
  8
001
  0
LINE
  8
001
 62
     4
 10
6904.269483
 20
3599.251386
 11
6957.385039
 21
3630.295756
  0
CIRCLE
  8
001
 62
     4
 10
6978.96884
 20
3642.910808
 40
25.0
  0
TEXT
  8
001
 62
     4
 10
6963.96884
 20
3627.910808
 40
30.0
  1
2
  0
POLYLINE
  8
001
 62
     4
 66
     1
  0
VERTEX
  8
001
 62
     4
 10
6484.281222
 20
4353.180755
  0
VERTEX
  8
001
 62
     4
 10
6476.683962
 20
4360.213629
  0
VERTEX
  8
001
 62
     4
 10
6479.746946
 20
4350.324352
  0
SEQEND
  8
001
  0
LINE
  8
001
 62
     4
 10
6476.683962
 20
4360.213629
 11
6503.434098
 21
4317.75026
  0
CIRCLE
  8
001
 62
     4
 10
6516.759403
 20
4296.59757
 40
25.0
  0
TEXT
  8
001
 62
     4
 10
6501.759403
 20
4281.59757
 40
30.0
  1
4
  0
POLYLINE
  8
001
 62
     4
 66
     1
  0
VERTEX
  8
001
 62
     4
 10
7419.599334
 20
4494.375062
  0
VERTEX
  8
001
 62
     4
 10
7414.674447
 20
4485.268736
  0
VERTEX
  8
001
 62
     4
 10
7423.492687
 20
4490.692603
  0
SEQEND
  8
001
  0
LINE
  8
001
 62
     4
 10
7414.674447
 20
4485.268736
 11
7496.253435
 21
4571.519734
  0
CIRCLE
  8
001
 62
     4
 10
7513.432343
 20
4589.682474
 40
25.0
  0
TEXT
  8
001
 62
     4
 10
7498.432343
 20
4574.682474
 40
30.0
  1
5
  0
POLYLINE
  8
001
 62
     4
 66
     1
  0
VERTEX
  8
001
 62
     4
 10
7404.446078
 20
3824.427387
  0
VERTEX
  8
001
 62
     4
 10
7401.674414
 20
3814.452541
  0
VERTEX
  8
001
 62
     4
 10
7409.062168
 20
3821.70518
  0
SEQEND
  8
001
  0
LINE
  8
001
 62
     4
 10
7401.674414
 20
3814.452541
 11
7418.755365
 21
3843.41698
  0
CIRCLE
  8
001
 62
     4
 10
7431.454636
 20
3864.951336
 40
25.0
  0
TEXT
  8
001
 62
     4
 10
7416.454636
 20
3849.951336
 40
30.0
  1
1
 41
1.499999
  0
POLYLINE
  8
001
 62
     4
 66
     1
  0
VERTEX
  8
001
 62
     4
 10
7325.259405
 20
3591.419582
  0
VERTEX
  8
001
 62
     4
 10
7322.459802
 20
3581.452541
  0
VERTEX
  8
001
 62
     4
 10
7329.86785
 20
3588.68445
  0
SEQEND
  8
001
  0
LINE
  8
001
 62
     4
 10
7322.459802
 20
3581.452541
 11
7332.833205
 21
3598.930768
  0
CIRCLE
  8
001
 62
     4
 10
7345.592768
 20
3620.429456
 40
25.0
  0
TEXT
  8
001
 62
     4
 10
7330.592768
 20
3605.429456
 40
30.0
  1
7
  0
POLYLINE
  8
001
 62
     4
 66
     1
  0
VERTEX
  8
001
 62
     4
 10
7867.759564
 20
3586.726199
  0
VERTEX
  8
001
 62
     4
 10
7866.444167
 20
3576.457343
  0
VERTEX
  8
001
 62
     4
 10
7872.717762
 20
3584.692735
  0
SEQEND
  8
001
  0
LINE
  8
001
 62
     4
 10
7866.444167
 20
3576.457343
 11
7883.076725
 21
3617.012521
  0
CIRCLE
  8
001
 62
     4
 10
7892.562967
 20
3640.14283
 40
25.0
  0
TEXT
  8
001
 62
     4
 10
7877.562967
 20
3625.14283
 40
30.0
  1
8
  0
POLYLINE
  8
001
 62
     4
 66
     1
  0
VERTEX
  8
001
 62
     4
 10
6315.247207
 20
3091.897527
  0
VERTEX
  8
001
 62
     4
 10
6307.738848
 20
3099.025235
  0
VERTEX
  8
001
 62
     4
 10
6310.677424
 20
3089.098279
  0
SEQEND
  8
001
  0
LINE
  8
001
 62
     4
 10
6307.738848
 20
3099.025235
 11
6352.632255
 21
3025.736577
  0
LINE
  8
001
 62
     4
 10
6352.632255
 20
3025.736577
 11
6712.632255
 21
3025.736577
  0
TEXT
  8
001
 62
     4
 10
6372.632255
 20
3030.736577
 40
20.0
  1
ＳＫ－６００－２は中間押さえなし
 41
0.833333
  0
TEXT
  8
001
 10
7404.860527
 20
4793.737245
 40
20.0
  1
H13.6.21
 41
0.6
  0
TEXT
  8
001
 10
7489.860527
 20
4793.737245
 40
20.0
  1
寸法の誤記修正
 41
0.833333
  0
TEXT
  8
001
 10
7992.360527
 20
4793.737245
 40
20.0
  1
吉村
 41
0.833333
  0
TEXT
  8
001
 10
7734.860527
 20
2963.112245
 40
20.0
  1
OA
 41
0.95
  0
TEXT
  8
001
 10
7772.860526
 20
2963.112245
 40
10.0
  1
2
 41
0.95
  0
TEXT
  8
001
 10
7782.360526
 20
2963.112245
 40
20.0
  1
-00945A
 41
0.9975
  0
LINE
  8
001
 62
     6
 10
7322.360527
 20
2911.237245
 11
7322.360527
 21
2897.920543
  0
LINE
  8
001
 10
5462.360527
 20
2911.237245
 11
5462.360527
 21
2897.920543
  0
LINE
  8
001
 10
5712.360527
 20
2911.237245
 11
5712.360527
 21
2897.920543
  0
LINE
  8
001
 10
5962.360527
 20
2911.237245
 11
5962.360527
 21
2897.920543
  0
LINE
  8
001
 10
6212.360527
 20
2911.237245
 11
6212.360527
 21
2897.920543
  0
LINE
  8
001
 10
6462.360527
 20
2911.237245
 11
6462.360527
 21
2897.920543
  0
LINE
  8
001
 10
7212.360527
 20
2911.237245
 11
7212.360527
 21
2897.920543
  0
LINE
  8
001
 10
5337.360527
 20
4731.237245
 11
5324.043825
 21
4731.237245
  0
LINE
  8
001
 10
5337.360527
 20
4481.237245
 11
5324.043825
 21
4481.237245
  0
LINE
  8
001
 10
5337.360527
 20
4231.237245
 11
5324.043825
 21
4231.237245
  0
LINE
  8
001
 10
5337.360527
 20
3981.237245
 11
5324.043825
 21
3981.237245
  0
LINE
  8
001
 10
5462.360527
 20
4869.553946
 11
5462.360527
 21
4856.237245
  0
LINE
  8
001
 10
5712.360527
 20
4869.553946
 11
5712.360527
 21
4856.237245
  0
LINE
  8
001
 10
5962.360527
 20
4869.553946
 11
5962.360527
 21
4856.237245
  0
LINE
  8
001
 10
6212.360527
 20
4869.553946
 11
6212.360527
 21
4856.237245
  0
LINE
  8
001
 10
6462.360527
 20
4869.553946
 11
6462.360527
 21
4856.237245
  0
LINE
  8
001
 10
6712.360527
 20
4869.553946
 11
6712.360527
 21
4856.237245
  0
LINE
  8
001
 10
6962.360527
 20
4869.553946
 11
6962.360527
 21
4856.237245
  0
LINE
  8
001
 10
7212.360527
 20
4869.553946
 11
7212.360527
 21
4856.237245
  0
LINE
  8
001
 10
7462.360527
 20
4869.553946
 11
7462.360527
 21
4856.237245
  0
LINE
  8
001
 10
7712.360527
 20
4869.553946
 11
7712.360527
 21
4856.237245
  0
LINE
  8
001
 10
7962.360527
 20
4869.553946
 11
7962.360527
 21
4856.237245
  0
LINE
  8
001
 10
8093.177228
 20
4731.237245
 11
8079.860527
 21
4731.237245
  0
LINE
  8
001
 10
8093.177228
 20
4481.237245
 11
8079.860527
 21
4481.237245
  0
LINE
  8
001
 10
8093.177228
 20
4231.237245
 11
8079.860527
 21
4231.237245
  0
LINE
  8
001
 10
8093.177228
 20
3981.237245
 11
8079.860527
 21
3981.237245
  0
LINE
  8
001
 10
8093.177228
 20
3731.237245
 11
8079.860527
 21
3731.237245
  0
LINE
  8
001
 10
5324.043825
 20
3481.237245
 11
5337.360527
 21
3481.237245
  0
LINE
  8
001
 10
5324.043825
 20
3231.237245
 11
5337.360527
 21
3231.237245
  0
LINE
  8
001
 10
5324.043825
 20
2981.237245
 11
5337.360527
 21
2981.237245
  0
LINE
  8
001
 62
     6
 10
5337.360527
 20
2911.237245
 11
8079.860527
 21
2911.237245
  0
LINE
  8
001
 62
     6
 10
8079.860527
 20
2911.237245
 11
8079.860527
 21
4856.237245
  0
LINE
  8
001
 62
     6
 10
8079.860527
 20
4856.237245
 11
5337.360527
 21
4856.237245
  0
LINE
  8
001
 62
     6
 10
5337.360527
 20
2911.237245
 11
5337.360527
 21
4856.237245
  0
LINE
  8
001
 10
8093.177228
 20
3481.237245
 11
8079.860527
 21
3481.237245
  0
LINE
  8
001
 10
8093.177228
 20
2981.237245
 11
8079.860527
 21
2981.237245
  0
LINE
  8
001
 10
6962.360527
 20
2911.237245
 11
6962.360527
 21
2897.920543
  0
LINE
  8
001
 10
6712.360527
 20
2911.237245
 11
6712.360527
 21
2897.920543
  0
LINE
  8
001
 10
5337.360527
 20
3731.237245
 11
5324.043825
 21
3731.237245
  0
LINE
  8
001
 10
5337.360527
 20
3703.737245
 11
5324.043825
 21
3703.737245
  0
TEXT
  8
001
 10
5309.860527
 20
3682.340822
 40
20.0
  1
A4
 41
0.75
  0
TEXT
  8
001
 10
7357.360527
 20
4828.737245
 40
20.0
  1
符号
 41
0.833333
  0
LINE
  8
001
 62
     6
 10
7154.860527
 20
4716.237245
 11
7154.860527
 21
4856.237245
  0
LINE
  8
001
 62
     9
 10
5309.860527
 20
3576.237245
 11
5321.890567
 21
3588.267235
  0
LINE
  8
001
 62
     9
 10
5309.860527
 20
3576.237245
 11
5321.890567
 21
3564.207295
  0
LINE
  8
001
 62
     9
 10
5321.890567
 20
3588.267235
 11
5321.890567
 21
3564.207295
  0
LINE
  8
001
 62
     9
 10
8084.860527
 20
3181.237245
 11
8079.860527
 21
3181.237245
  0
LINE
  8
001
 62
     9
 10
8084.860527
 20
3216.237245
 11
8079.860527
 21
3216.237245
  0
LINE
  8
001
 62
     9
 10
8084.860527
 20
3251.237245
 11
8079.860527
 21
3251.237245
  0
LINE
  8
001
 62
     9
 10
8084.860527
 20
3286.237245
 11
8079.860527
 21
3286.237245
  0
LINE
  8
001
 62
     9
 10
8084.860527
 20
3321.237245
 11
8079.860527
 21
3321.237245
  0
LINE
  8
001
 62
     9
 10
8084.860527
 20
3356.237245
 11
8079.860527
 21
3356.237245
  0
LINE
  8
001
 62
     9
 10
8084.860527
 20
3391.237245
 11
8079.860527
 21
3391.237245
  0
LINE
  8
001
 62
     9
 10
7399.860527
 20
4856.237245
 11
7399.860527
 21
4716.081638
  0
LINE
  8
001
 62
     9
 10
8079.860527
 20
4821.237245
 11
7154.860527
 21
4821.237245
  0
LINE
  8
001
 62
     9
 10
8079.860527
 20
4786.237245
 11
7154.860527
 21
4786.237245
  0
LINE
  8
001
 62
     9
 10
8079.860527
 20
4751.237245
 11
7154.860527
 21
4751.237245
  0
LINE
  8
001
 62
     9
 10
8079.860527
 20
4716.237245
 11
7154.860527
 21
4716.237245
  0
LINE
  8
001
 62
     9
 10
7354.860527
 20
4716.237245
 11
7354.860527
 21
4856.237245
  0
LINE
  8
001
 62
     9
 10
7484.860527
 20
4856.237245
 11
7484.860527
 21
4716.081638
  0
LINE
  8
001
 62
     9
 10
8034.860527
 20
4716.237245
 11
8034.860527
 21
4856.237245
  0
LINE
  8
001
 62
     9
 10
7989.860527
 20
4716.237245
 11
7989.860527
 21
4856.237245
  0
TEXT
  8
001
 10
7934.860527
 20
2914.987245
 40
20.0
  1
と差し替えて下さい。
 41
0.625
  0
TEXT
  8
001
 10
8029.860527
 20
2942.487245
 40
20.0
  1
発行分
 41
0.625
  0
TEXT
  8
001
 10
7934.860527
 20
2969.987245
 40
20.0
  1
発行
 41
0.625
  0
TEXT
  8
001
 10
7684.860527
 20
3045.612245
 40
20.0
  1
機種
 41
0.833333
  0
TEXT
  8
001
 10
7684.860527
 20
3004.362245
 40
20.0
  1
品名
 41
0.833333
  0
TEXT
  8
001
 10
7684.860527
 20
2963.112245
 40
20.0
  1
図番
 41
0.833333
  0
TEXT
  8
001
 10
7444.860527
 20
2917.487245
 40
20.0
  1
(1)
 41
1.312499
  0
TEXT
  8
001
 10
7552.360527
 20
2917.487245
 40
20.0
  1
(2)
 41
1.125
  0
TEXT
  8
001
 10
7142.360527
 20
3083.737245
 40
20.0
  1
記号
 41
0.833333
  0
TEXT
  8
001
 10
7247.360527
 20
3083.737245
 40
20.0
  1
部品名
 41
1.25
  0
TEXT
  8
001
 10
7597.360527
 20
3083.737245
 40
20.0
  1
数量
 41
0.833333
  0
TEXT
  8
001
 10
7414.860527
 20
3083.737245
 40
20.0
  1
材質・寸法
 41
1.25
  0
LINE
  8
001
 62
     6
 10
7139.860527
 20
3076.237245
 11
8079.860527
 21
3076.237245
  0
LINE
  8
001
 62
     9
 10
7139.860527
 20
3146.237245
 11
8079.860527
 21
3146.237245
  0
LINE
  8
001
 62
     9
 10
7139.860527
 20
3111.237245
 11
8079.860527
 21
3111.237245
  0
LINE
  8
001
 62
     9
 10
7929.860527
 20
2911.237392
 11
7929.860527
 21
2993.737245
  0
LINE
  8
001
 62
     9
 10
7929.860527
 20
2938.737245
 11
8079.860527
 21
2938.737245
  0
LINE
  8
001
 62
     9
 10
7929.860527
 20
2966.237245
 11
8079.860527
 21
2966.237245
  0
LINE
  8
001
 62
     9
 10
7729.860527
 20
2911.237392
 11
7729.860527
 21
3076.237245
  0
LINE
  8
001
 62
     9
 10
7679.860527
 20
2952.487245
 11
7929.860527
 21
2952.487245
  0
LINE
  8
001
 62
     9
 10
7679.860527
 20
3034.987245
 11
8079.860527
 21
3034.987245
  0
LINE
  8
001
 62
     9
 10
7139.860527
 20
2993.737245
 11
8079.860527
 21
2993.737245
  0
LINE
  8
001
 62
     9
 10
7679.860527
 20
2911.237392
 11
7679.860527
 21
3076.237245
  0
LINE
  8
001
 62
     9
 10
7454.860527
 20
2911.237245
 11
7454.860527
 21
3076.237245
  0
LINE
  8
001
 62
     9
 10
7489.860527
 20
2911.237245
 11
7489.860527
 21
3076.237245
  0
LINE
  8
001
 62
     9
 10
7562.360527
 20
2911.237392
 11
7562.360527
 21
3076.237245
  0
LINE
  8
001
 62
     9
 10
7597.360527
 20
2911.237392
 11
7597.360527
 21
3076.237245
  0
LINE
  8
001
 62
     9
 10
7312.360527
 20
2993.737245
 11
7312.360527
 21
3076.237245
  0
LINE
  8
001
 62
     9
 10
7169.860527
 20
3021.237245
 11
7454.860527
 21
3021.237245
  0
LINE
  8
001
 62
     9
 10
7169.860527
 20
3048.737245
 11
7454.860527
 21
3048.737245
  0
LINE
  8
001
 62
     9
 10
7169.860527
 20
2911.237392
 11
7169.860527
 21
3076.237245
  0
LINE
  8
001
 62
     9
 10
7214.860527
 20
2911.237245
 11
7214.860527
 21
2993.737245
  0
LINE
  8
001
 62
     9
 10
7294.860527
 20
2911.237245
 11
7294.860527
 21
2993.737245
  0
LINE
  8
001
 62
     9
 10
7374.860527
 20
2911.237245
 11
7374.860527
 21
2993.737245
  0
LINE
  8
001
 62
     9
 10
7244.860527
 20
2941.237245
 11
7244.860527
 21
2993.737245
  0
LINE
  8
001
 62
     9
 10
7214.860527
 20
2941.237245
 11
7454.860527
 21
2941.237245
  0
LINE
  8
001
 62
     9
 10
7324.860527
 20
2941.237245
 11
7324.860527
 21
2993.737245
  0
LINE
  8
001
 62
     9
 10
7404.860527
 20
2941.237245
 11
7404.860527
 21
2993.737245
  0
TEXT
  8
001
 10
7957.360527
 20
3083.737245
 40
20.0
  1
伸晃コード
 41
0.833333
  0
TEXT
  8
001
 10
7677.360527
 20
3083.737245
 40
20.0
  1
仕上・処理・加工・記事
 41
0.833333
  0
TEXT
  8
001
 10
7389.860527
 20
2987.487245
 40
20.0
  1
写図
 50
360.000001
 41
0.833333
 51
1.570796
  7
TATEGAKI
  0
TEXT
  8
001
 10
7229.860527
 20
2987.487245
 40
20.0
  1
設計
 50
360.000001
 41
0.833333
 51
1.570796
  7
TATEGAKI
  0
TEXT
  8
001
 10
7309.860527
 20
2987.487245
 40
20.0
  1
製図
 50
360.000001
 41
0.833333
 51
1.570796
  7
TATEGAKI
  0
TEXT
  8
001
 10
7154.860527
 20
3069.987245
 40
17.5
  1
共通機種
 50
360.000001
 41
0.833333
 51
1.570796
  7
TATEGAKI
  0
TEXT
  8
001
 10
7154.860527
 20
2977.487245
 40
20.0
  1
尺　度
 50
360.000001
 41
0.625
 51
1.570796
  7
TATEGAKI
  0
TEXT
  8
001
 10
7472.360527
 20
2987.487245
 40
20.0
  1
検　図
 50
360.000001
 41
0.520833
 51
1.570796
  7
TATEGAKI
  0
TEXT
  8
001
 10
7579.860527
 20
2987.487245
 40
20.0
  1
検　図
 50
360.000001
 41
0.520833
 51
1.570796
  7
TATEGAKI
  0
TEXT
  8
001
 10
7579.860527
 20
3059.987245
 40
20.0
  1
承　認
 50
360.000001
 41
0.625
 51
1.570796
  7
TATEGAKI
  0
TEXT
  8
001
 10
7182.360527
 20
2942.487245
 40
20.0
  1
-
  0
LINE
  8
001
 62
     9
 10
7139.860527
 20
3181.237245
 11
8079.860527
 21
3181.237245
  0
LINE
  8
001
 62
     9
 10
7139.860527
 20
3216.237245
 11
8079.860527
 21
3216.237245
  0
LINE
  8
001
 62
     9
 10
7139.860527
 20
3251.237245
 11
8079.860527
 21
3251.237245
  0
LINE
  8
001
 62
     9
 10
7139.860527
 20
3286.237245
 11
8079.860527
 21
3286.237245
  0
LINE
  8
001
 62
     9
 10
7139.860527
 20
3321.237245
 11
8079.860527
 21
3321.237245
  0
LINE
  8
001
 62
     9
 10
7139.860527
 20
3356.237245
 11
8079.860527
 21
3356.237245
  0
LINE
  8
001
 62
     9
 10
7139.860527
 20
3391.237245
 11
8079.860527
 21
3391.237245
  0
LINE
  8
001
 62
     6
 10
7139.860527
 20
3391.237245
 11
7139.860527
 21
2911.237245
  0
LINE
  8
001
 62
     9
 10
7184.860527
 20
3076.237245
 11
7184.860527
 21
3391.237245
  0
LINE
  8
001
 62
     9
 10
7374.860527
 20
3076.237245
 11
7374.860527
 21
3391.237245
  0
LINE
  8
001
 62
     9
 10
7594.860527
 20
3076.237245
 11
7594.860527
 21
3391.237245
  0
LINE
  8
001
 62
     9
 10
7639.860527
 20
3076.237245
 11
7639.860527
 21
3391.237245
  0
LINE
  8
001
 62
     9
 10
7934.860527
 20
3076.237245
 11
7934.860527
 21
3391.237245
  0
TEXT
  8
001
 10
7379.860527
 20
3118.737245
 40
20.0
  1
A.B.S.
 41
1.125
  0
TEXT
  8
001
 10
7379.860527
 20
3153.73727
 40
20.0
  1
SUS430 t2.0
 41
0.87766
  0
TEXT
  8
001
 10
7379.860527
 20
3188.73723
 40
20.0
  1
A.B.S.
 41
1.125
  0
TEXT
  8
001
 10
7379.860527
 20
3223.737235
 40
20.0
  1
SUS304 %%c10
 41
0.858779
  0
TEXT
  8
001
 10
7379.860527
 20
3258.737215
 40
20.0
  1
SUS302 t0.4
 41
0.87766
  0
TEXT
  8
001
 10
7382.397859
 20
3296.551709
 40
20.0
  1
M5*L5
 41
0.75
  0
TEXT
  8
001
 10
7379.860527
 20
3328.737225
 40
20.0
  1
A.B.S.
 41
1.125
  0
TEXT
  8
001
 10
7379.860527
 20
3363.73723
 40
20.0
  1
A.B.S.
 41
1.125
  0
TEXT
  8
001
 10
7299.860527
 20
2916.237245
 40
20.0
  1
97,7,17
 41
0.65625
  0
TEXT
  8
001
 10
7219.860527
 20
2916.237245
 40
20.0
  1
97,7,17
 41
0.65625
  0
TEXT
  8
001
 10
7182.360527
 20
2962.487245
 40
20.0
  1
1
 41
1.499999
  0
TEXT
  8
001
 10
7182.360527
 20
2922.487245
 40
20.0
  1
5
  0
TEXT
  8
001
 10
7607.360827
 20
3363.73723
 40
20.0
  1
1
 41
1.499999
  0
TEXT
  8
001
 10
7607.360827
 20
3188.73723
 40
20.0
  1
1
 41
1.499999
  0
TEXT
  8
002
 10
5462.360527
 20
4861.237245
 40
20.0
  1
1
 41
1.799999
  0
TEXT
  8
002
 10
5712.360527
 20
4861.237245
 40
20.0
  1
2
 41
1.2
  0
TEXT
  8
002
 10
5962.360527
 20
4861.237245
 40
20.0
  1
3
 41
1.2
  0
TEXT
  8
002
 10
6212.360527
 20
4861.237245
 40
20.0
  1
4
 41
1.2
  0
TEXT
  8
002
 10
6462.360527
 20
4861.237245
 40
20.0
  1
5
 41
1.2
  0
TEXT
  8
002
 10
6712.360527
 20
4861.237245
 40
20.0
  1
6
 41
1.2
  0
TEXT
  8
002
 10
6962.360527
 20
4861.237245
 40
20.0
  1
7
 41
1.2
  0
TEXT
  8
002
 10
7212.360527
 20
4861.237245
 40
20.0
  1
8
 41
1.2
  0
TEXT
  8
002
 10
7462.360527
 20
4861.237245
 40
20.0
  1
9
 41
1.2
  0
TEXT
  8
002
 10
7712.360527
 20
4861.237245
 40
20.0
  1
10
 41
1.6
  0
TEXT
  8
002
 10
7962.360527
 20
4861.237245
 40
20.0
  1
11
 41
1.799999
  0
TEXT
  8
002
 10
5317.360527
 20
4731.237245
 40
20.0
  1
A
 41
1.2
  0
TEXT
  8
002
 10
5317.360527
 20
4481.237245
 40
20.0
  1
B
 41
1.2
  0
TEXT
  8
002
 10
5317.360527
 20
4231.237245
 40
20.0
  1
C
 41
1.2
  0
TEXT
  8
002
 10
5317.360527
 20
3981.237245
 40
20.0
  1
D
 41
1.2
  0
TEXT
  8
002
 10
8079.860527
 20
4731.237245
 40
20.0
  1
A
 41
1.2
  0
TEXT
  8
002
 10
8079.860527
 20
4481.237245
 40
20.0
  1
B
 41
1.2
  0
TEXT
  8
002
 10
8079.860527
 20
4231.237245
 40
20.0
  1
C
 41
1.2
  0
TEXT
  8
002
 10
8079.860527
 20
3981.237245
 40
20.0
  1
D
 41
1.2
  0
TEXT
  8
002
 10
8079.860527
 20
3731.237245
 40
20.0
  1
E
 41
1.2
  0
TEXT
  8
002
 10
5317.360527
 20
3481.237245
 40
20.0
  1
F
 41
1.2
  0
TEXT
  8
002
 10
5317.360527
 20
3231.237245
 40
20.0
  1
G
 41
1.2
  0
TEXT
  8
002
 10
5317.360527
 20
2981.237245
 40
20.0
  1
H
 41
1.2
  0
TEXT
  8
002
 10
5462.360527
 20
2886.237245
 40
20.0
  1
1
 41
1.799999
  0
TEXT
  8
002
 10
5712.360527
 20
2886.237245
 40
20.0
  1
2
 41
1.2
  0
TEXT
  8
002
 10
5962.360527
 20
2886.237245
 40
20.0
  1
3
 41
1.2
  0
TEXT
  8
002
 10
6462.360527
 20
2886.237245
 40
20.0
  1
5
 41
1.2
  0
TEXT
  8
002
 10
6212.360527
 20
2886.237245
 40
20.0
  1
4
 41
1.2
  0
TEXT
  8
002
 10
5337.360527
 20
2886.237245
 40
20.0
  1
A-2
 41
1.2
  0
TEXT
  8
002
 10
8079.860527
 20
3481.237245
 40
20.0
  1
F
 41
1.2
  0
TEXT
  8
002
 10
8079.860527
 20
2981.237245
 40
20.0
  1
H
 41
1.2
  0
TEXT
  8
002
 10
6962.360527
 20
2886.237245
 40
20.0
  1
7
 41
1.2
  0
TEXT
  8
002
 10
7212.360527
 20
2886.237245
 40
20.0
  1
8
 41
1.2
  0
TEXT
  8
002
 10
6712.360527
 20
2886.237245
 40
20.0
  1
6
 41
1.2
  0
TEXT
  8
002
 10
5317.360527
 20
3731.237245
 40
20.0
  1
E
 41
1.2
  0
TEXT
  8
002
 10
7307.360527
 20
2886.237245
 40
20.0
  1
A4
 41
0.75
  0
TEXT
  8
002
 10
8094.860527
 20
3381.237098
 40
20.0
  1
図面を実測しての加工は行わないこと
 50
360.000001
 41
0.833333
 51
1.570796
  7
TATEGAKI
  0
TEXT
  8
002
 10
8094.860527
 20
3031.237098
 40
20.0
  1
。
 41
0.833333
  0
TEXT
  8
002
 10
7944.860527
 20
2886.237245
 40
15.0
  1
三角法　単位：ｍｍ
 41
0.833333
  0
TEXT
  8
002
 10
7679.860527
 20
2886.237245
 40
20.0
  1
株式会社　伸晃
 41
1.041667
  0
TEXT
  8
002
 10
7408.360536
 20
4828.737245
 40
20.0
  1
年月日
  0
TEXT
  8
002
 10
7159.860527
 20
4723.737245
 40
20.0
  1
（　）内は参考寸法
 41
0.833333
  0
TEXT
  8
002
 10
7184.860527
 20
4758.737245
 40
20.0
  1
☆印は重要寸法
 41
0.833333
  0
TEXT
  8
002
 10
7194.860527
 20
4828.737245
 40
20.0
  1
指定寸法公差
 41
0.833333
  0
TEXT
  8
002
 10
7629.860532
 20
4828.737245
 40
20.0
  1
設　　変　　内　　容
 41
0.833333
  0
TEXT
  8
002
 10
7992.360527
 20
4828.737245
 40
20.0
  1
担当
 41
0.833333
  0
TEXT
  8
002
 10
8037.360527
 20
4828.737245
 40
20.0
  1
検印
 41
0.833333
  0
ENDSEC
  0
EOF
