  0
SECTION
  2
HEADER
  9
$ACADVER
  1
AC1003
  9
$INSBASE
 10
0.0
 20
0.0
  9
$EXTMIN
 10
9971.999023
 20
-4232.257324
  9
$EXTMAX
 10
12941.999023
 20
-2132.257324
  9
$LIMMIN
 10
0.0
 20
0.0
  9
$LIMMAX
 10
12.0
 20
9.0
  9
$VIEWCTR
 10
6.591288
 20
4.579184
  9
$VIEWSIZE
 40
9.158369
  9
$SNAPMODE
 70
     0
  9
$SNAPUNIT
 10
1.0
 20
1.0
  9
$SNAPBASE
 10
0.0
 20
0.0
  9
$SNAPANG
 50
0.0
  9
$SNAPSTYLE
 70
     0
  9
$SNAPISOPAIR
 70
     0
  9
$GRIDMODE
 70
     0
  9
$GRIDUNIT
 10
0.0
 20
0.0
  9
$ORTHOMODE
 70
     0
  9
$REGENMODE
 70
     1
  9
$FILLMODE
 70
     1
  9
$QTEXTMODE
 70
     0
  9
$DRAGMODE
 70
     2
  9
$LTSCALE
 40
49.5
  9
$OSMODE
 70
     0
  9
$ATTMODE
 70
     1
  9
$TEXTSIZE
 40
3.2
  9
$TRACEWID
 40
0.05
  9
$TEXTSTYLE
  7
STANDARD
  9
$CLAYER
  8
0
  9
$CELTYPE
  6
CONTINUOUS
  9
$CECOLOR
 62
   256
  9
$DIMSCALE
 40
1.0
  9
$DIMASZ
 40
0.18
  9
$DIMEXO
 40
0.0625
  9
$DIMDLI
 40
0.38
  9
$DIMRND
 40
0.0
  9
$DIMDLE
 40
0.0
  9
$DIMEXE
 40
0.18
  9
$DIMTP
 40
0.0
  9
$DIMTM
 40
0.0
  9
$DIMTXT
 40
0.18
  9
$DIMCEN
 40
0.09
  9
$DIMTSZ
 40
0.0
  9
$DIMTOL
 70
     0
  9
$DIMLIM
 70
     0
  9
$DIMTIH
 70
     1
  9
$DIMTOH
 70
     1
  9
$DIMSE1
 70
     0
  9
$DIMSE2
 70
     0
  9
$DIMTAD
 70
     0
  9
$DIMZIN
 70
     0
  9
$DIMBLK
  1

  9
$DIMASO
 70
     1
  9
$DIMSHO
 70
     1
  9
$DIMPOST
  1

  9
$DIMAPOST
  1

  9
$DIMALT
 70
     0
  9
$DIMALTD
 70
     2
  9
$DIMALTF
 40
25.4
  9
$DIMLFAC
 40
1.0
  9
$LUNITS
 70
     2
  9
$LUPREC
 70
     4
  9
$AXISMODE
 70
     0
  9
$AXISUNIT
 10
0.0
 20
0.0
  9
$SKETCHINC
 40
0.1
  9
$FILLETRAD
 40
0.0
  9
$AUNITS
 70
     0
  9
$AUPREC
 70
     0
  9
$MENU
  1
acad
  9
$ELEVATION
 40
0.0
  9
$THICKNESS
 40
0.0
  9
$VIEWDIR
 10
0.0
 20
0.0
 30
1.0
  9
$LIMCHECK
 70
     0
  9
$BLIPMODE
 70
     1
  9
$CHAMFERA
 40
0.0
  9
$CHAMFERB
 40
0.0
  9
$FASTZOOM
 70
     1
  9
$SKPOLY
 70
     0
  9
$TDCREATE
 40
0.000000000
  9
$TDUPDATE
 40
0.000000000
  9
$TDINDWG
 40
0.0000000000
  9
$TDUSRTIMER
 40
0.0000000000
  9
$USRTIMER
 70
     1
  9
$ANGBASE
 50
0.0
  9
$ANGDIR
 70
     0
  9
$PDMODE
 70
     0
  9
$PDSIZE
 40
0.0
  9
$PLINEWID
 40
0.0
  9
$COORDS
 70
     1
  9
$USERI1
 70
     0
  9
$USERI2
 70
     0
  9
$USERI3
 70
     0
  9
$USERI4
 70
     0
  9
$USERI5
 70
     0
  9
$USERR1
 40
0.0
  9
$USERR2
 40
0.0
  9
$USERR3
 40
0.0
  9
$USERR4
 40
0.0
  9
$USERR5
 40
0.0
  0
ENDSEC
  0
SECTION
  2
TABLES
  0
TABLE
  2
LTYPE
 70
    25
  0
LTYPE
  2
CONTINUOUS
 70
    64
  3
Solid line
 72
    65
 73
     0
 40
0.0
  0
LTYPE
  2
DASHED
 70
    64
  3
DASHED
 72
    65
 73
     2
 40
0.75
 49
0.5
 49
-0.25
  0
LTYPE
  2
HIDDEN
 70
    64
  3
HIDDEN
 72
    65
 73
     2
 40
0.375
 49
0.25
 49
-0.125
  0
LTYPE
  2
CENTER
 70
    64
  3
CENTER
 72
    65
 73
     4
 40
2.0
 49
1.25
 49
-0.25
 49
0.25
 49
-0.25
  0
LTYPE
  2
PHANTOM
 70
    64
  3
PHANTOM
 72
    65
 73
     6
 40
2.5
 49
1.25
 49
-0.25
 49
0.25
 49
-0.25
 49
0.25
 49
-0.25
  0
LTYPE
  2
BORDER
 70
    64
  3
BORDER
 72
    65
 73
     6
 40
1.75
 49
0.5
 49
-0.25
 49
0.5
 49
-0.25
 49
0.0
 49
-0.25
  0
LTYPE
  2
BORDER2
 70
    64
  3
BORDER2
 72
    65
 73
     6
 40
0.875
 49
0.25
 49
-0.125
 49
0.25
 49
-0.125
 49
0.0
 49
-0.125
  0
LTYPE
  2
BORDERX2
 70
    64
  3
BORDERX2
 72
    65
 73
     6
 40
3.5
 49
1.0
 49
-0.5
 49
1.0
 49
-0.5
 49
0.0
 49
-0.5
  0
LTYPE
  2
CENTER2
 70
    64
  3
CENTER2
 72
    65
 73
     4
 40
1.125
 49
0.75
 49
-0.125
 49
0.125
 49
-0.125
  0
LTYPE
  2
CENTERX2
 70
    64
  3
CENTERX2
 72
    65
 73
     4
 40
4.0
 49
2.5
 49
-0.5
 49
0.5
 49
-0.5
  0
LTYPE
  2
DASHDOT
 70
    64
  3
DASHDOT
 72
    65
 73
     4
 40
1.0
 49
0.5
 49
-0.25
 49
0.0
 49
-0.25
  0
LTYPE
  2
DASHDOT2
 70
    64
  3
DASHDOT2
 72
    65
 73
     4
 40
0.5
 49
0.25
 49
-0.125
 49
0.0
 49
-0.125
  0
LTYPE
  2
DASHDOTX2
 70
    64
  3
DASHDOTX2
 72
    65
 73
     4
 40
2.0
 49
1.0
 49
-0.5
 49
0.0
 49
-0.5
  0
LTYPE
  2
DASHED2
 70
    64
  3
DASHED2
 72
    65
 73
     2
 40
0.375
 49
0.25
 49
-0.125
  0
LTYPE
  2
DASHEDX2
 70
    64
  3
DASHEDX2
 72
    65
 73
     2
 40
1.5
 49
1.0
 49
-0.5
  0
LTYPE
  2
DIVIDE
 70
    64
  3
DIVIDE
 72
    65
 73
     6
 40
1.25
 49
0.5
 49
-0.25
 49
0.0
 49
-0.25
 49
0.0
 49
-0.25
  0
LTYPE
  2
DIVIDE2
 70
    64
  3
DIVIDE2
 72
    65
 73
     6
 40
0.625
 49
0.25
 49
-0.125
 49
0.0
 49
-0.125
 49
0.0
 49
-0.125
  0
LTYPE
  2
DIVIDEX2
 70
    64
  3
DIVIDEX2
 72
    65
 73
     6
 40
2.5
 49
1.0
 49
-0.5
 49
0.0
 49
-0.5
 49
0.0
 49
-0.5
  0
LTYPE
  2
DOT
 70
    64
  3
DOT
 72
    65
 73
     2
 40
0.25
 49
0.0
 49
-0.25
  0
LTYPE
  2
DOT2
 70
    64
  3
DOT2
 72
    65
 73
     2
 40
0.125
 49
0.0
 49
-0.125
  0
LTYPE
  2
DOTX2
 70
    64
  3
DOTX2
 72
    65
 73
     2
 40
0.5
 49
0.0
 49
-0.5
  0
LTYPE
  2
HIDDEN2
 70
    64
  3
HIDDEN2
 72
    65
 73
     2
 40
0.1875
 49
0.125
 49
-0.0625
  0
LTYPE
  2
HIDDENX2
 70
    64
  3
HIDDENX2
 72
    65
 73
     2
 40
0.75
 49
0.5
 49
-0.25
  0
LTYPE
  2
PHANTOM2
 70
    64
  3
PHANTOM2
 72
    65
 73
     6
 40
1.25
 49
0.625
 49
-0.125
 49
0.125
 49
-0.125
 49
0.125
 49
-0.125
  0
LTYPE
  2
PHANTOMX2
 70
    64
  3
PHANTOMX2
 72
    65
 73
     6
 40
5.0
 49
2.5
 49
-0.5
 49
0.5
 49
-0.5
 49
0.5
 49
-0.5
  0
ENDTAB
  0
TABLE
  2
LAYER
 70
     3
  0
LAYER
  2
0
 70
     0
 62
     7
  6
CONTINUOUS
  0
LAYER
  2
001
 70
     0
 62
     7
  6
CONTINUOUS
  0
LAYER
  2
002
 70
     0
 62
     7
  6
CONTINUOUS
  0
ENDTAB
  0
TABLE
  2
STYLE
 70
     2
  0
STYLE
  2
STANDARD
 70
     0
 40
0.0
 41
1.0
 50
0.0
 71
     0
 42
0.2
  3
TXT
  4
BIGFONT
  0
STYLE
  2
TATEGAKI
 70
     4
 40
1.0
 41
1.0
 50
0.0
 71
     0
 42
0.2
  3
TXT
  4
BIGFONT
  0
ENDTAB
  0
TABLE
  2
VIEW
 70
     0
  0
ENDTAB
  0
ENDSEC
  0
SECTION
  2
BLOCKS
  0
BLOCK
  8
001
  2
PART0
 70
     0
 10
0.0
 20
0.0
  0
ENDBLK
  8
001
  0
BLOCK
  8
0
  2
ARROW
 70
     0
 10
0.0
 20
0.0
  0
POLYLINE
  8
0
  6
CONTINUOUS
 62
     0
 66
     1
  0
VERTEX
  8
0
  6
CONTINUOUS
 62
     0
 10
10.0
 20
2.679492
  0
VERTEX
  8
0
  6
CONTINUOUS
 62
     0
 10
0.0
 20
0.0
  0
VERTEX
  8
0
  6
CONTINUOUS
 62
     0
 10
10.0
 20
-2.679492
  0
SEQEND
  8
0
  0
ENDBLK
  8
0
  0
BLOCK
  8
001
  2
*D2
 70
     1
 10
0.0
 20
0.0
  0
LINE
  8
001
 62
     4
 10
10320.149782
 20
-2974.009424
 11
10320.149782
 21
-2913.8831
  0
LINE
  8
001
 62
     4
 10
10340.149782
 20
-2974.009424
 11
10340.149782
 21
-2913.8831
  0
LINE
  8
001
 62
     4
 10
10320.149782
 20
-2918.8831
 11
10340.149782
 21
-2918.8831
  0
INSERT
  8
001
  6
BYBLOCK
 62
     4
  2
ARROW
 10
10320.149782
 20
-2918.8831
 50
180.0
  0
INSERT
  8
001
  6
BYBLOCK
 62
     4
  2
ARROW
 10
10340.149782
 20
-2918.8831
  0
TEXT
  8
001
 62
     4
 10
10355.149782
 20
-2913.8831
 40
20.0
  1
20
 41
1.090909
  0
POINT
  8
001
 62
     4
 10
10320.149782
 20
-2979.009424
  0
POINT
  8
001
 62
     4
 10
10340.149782
 20
-2979.009424
  0
POINT
  8
001
 62
     4
 10
10340.149782
 20
-2918.8831
  0
LINE
  8
001
 62
     4
 10
10320.149782
 20
-2918.8831
 11
10305.149782
 21
-2918.8831
  0
LINE
  8
001
 62
     4
 10
10340.149782
 20
-2918.8831
 11
10395.149782
 21
-2918.8831
  0
ENDBLK
  8
001
  0
BLOCK
  8
001
  2
*D3
 70
     1
 10
0.0
 20
0.0
  0
LINE
  8
001
 62
     4
 10
11540.149782
 20
-2974.009424
 11
11540.149782
 21
-2894.334102
  0
LINE
  8
001
 62
     4
 10
11560.149782
 20
-2974.009424
 11
11560.149782
 21
-2894.334102
  0
LINE
  8
001
 62
     4
 10
11540.149782
 20
-2899.334102
 11
11560.149782
 21
-2899.334102
  0
INSERT
  8
001
  6
BYBLOCK
 62
     4
  2
ARROW
 10
11540.149782
 20
-2899.334102
 50
180.0
  0
INSERT
  8
001
  6
BYBLOCK
 62
     4
  2
ARROW
 10
11560.149782
 20
-2899.334102
  0
TEXT
  8
001
 62
     4
 10
11485.149782
 20
-2894.334102
 40
20.0
  1
20
 41
1.090909
  0
POINT
  8
001
 62
     4
 10
11540.149782
 20
-2979.009424
  0
POINT
  8
001
 62
     4
 10
11560.149782
 20
-2979.009424
  0
POINT
  8
001
 62
     4
 10
11560.149782
 20
-2899.334102
  0
LINE
  8
001
 62
     4
 10
11540.149782
 20
-2899.334102
 11
11485.149782
 21
-2899.334102
  0
LINE
  8
001
 62
     4
 10
11560.149782
 20
-2899.334102
 11
11575.149782
 21
-2899.334102
  0
ENDBLK
  8
001
  0
BLOCK
  8
001
  2
*D4
 70
     1
 10
0.0
 20
0.0
  0
LINE
  8
001
 62
     4
 10
11565.149782
 20
-2507.998336
 11
11616.244362
 21
-2507.998336
  0
LINE
  8
001
 62
     4
 10
11611.244362
 20
-2534.998336
 11
11611.244362
 21
-2507.998336
  0
INSERT
  8
001
  6
BYBLOCK
 62
     4
  2
ARROW
 10
11611.244362
 20
-2507.998336
 50
90.0
  0
TEXT
  8
001
 62
     4
 10
11606.244362
 20
-2492.998336
 40
20.0
  1
27
 50
90.000003
  0
POINT
  8
001
 62
     4
 10
11557.028989
 20
-2534.998336
  0
POINT
  8
001
 62
     4
 10
11560.149782
 20
-2507.998336
  0
POINT
  8
001
 62
     4
 10
11611.244362
 20
-2507.998336
  0
LINE
  8
001
 62
     4
 10
11611.244362
 20
-2534.998336
 11
11611.244362
 21
-2549.998336
  0
LINE
  8
001
 62
     4
 10
11611.244362
 20
-2507.998336
 11
11611.244362
 21
-2452.998336
  0
ENDBLK
  8
001
  0
BLOCK
  8
001
  2
*D5
 70
     1
 10
0.0
 20
0.0
  0
LINE
  8
001
 62
     4
 10
11562.028989
 20
-2699.998336
 11
11616.244362
 21
-2699.998336
  0
LINE
  8
001
 62
     4
 10
11562.028989
 20
-2534.998336
 11
11616.244362
 21
-2534.998336
  0
LINE
  8
001
 62
     4
 10
11611.244362
 20
-2699.998336
 11
11611.244362
 21
-2534.998336
  0
INSERT
  8
001
  6
BYBLOCK
 62
     4
  2
ARROW
 10
11611.244362
 20
-2699.998336
 50
90.0
  0
INSERT
  8
001
  6
BYBLOCK
 62
     4
  2
ARROW
 10
11611.244362
 20
-2534.998336
 50
270.0
  0
TEXT
  8
001
 62
     4
 10
11606.244362
 20
-2647.498336
 40
20.0
  1
165
 50
90.000003
 41
1.125
  0
POINT
  8
001
 62
     4
 10
11557.028989
 20
-2699.998336
  0
POINT
  8
001
 62
     4
 10
11557.028989
 20
-2534.998336
  0
POINT
  8
001
 62
     4
 10
11611.244362
 20
-2534.998336
  0
ENDBLK
  8
001
  0
BLOCK
  8
001
  2
*D6
 70
     1
 10
0.0
 20
0.0
  0
LINE
  8
001
 62
     4
 10
12191.917306
 20
-3031.509424
 11
12191.917306
 21
-2979.009424
  0
INSERT
  8
001
  6
BYBLOCK
 62
     4
  2
ARROW
 10
12191.917306
 20
-2979.009424
 50
90.0
  0
TEXT
  8
001
 62
     4
 10
12186.917306
 20
-2964.009424
 40
20.0
  1
52.5
 50
90.000003
 41
1.2
  0
POINT
  8
001
 62
     4
 10
12144.131184
 20
-3031.509424
  0
POINT
  8
001
 62
     4
 10
12129.782244
 20
-2979.009424
  0
POINT
  8
001
 62
     4
 10
12191.917306
 20
-2979.009424
  0
LINE
  8
001
 62
     4
 10
12191.917306
 20
-3031.509424
 11
12191.917306
 21
-3046.509424
  0
LINE
  8
001
 62
     4
 10
12191.917306
 20
-2979.009424
 11
12191.917306
 21
-2884.009424
  0
ENDBLK
  8
001
  0
BLOCK
  8
001
  2
*D7
 70
     1
 10
0.0
 20
0.0
  0
LINE
  8
001
 62
     4
 10
12150.434589
 20
-3226.509424
 11
12196.917306
 21
-3226.509424
  0
LINE
  8
001
 62
     4
 10
12191.917306
 20
-3279.009424
 11
12191.917306
 21
-3226.509424
  0
INSERT
  8
001
  6
BYBLOCK
 62
     4
  2
ARROW
 10
12191.917306
 20
-3279.009424
 50
270.0
  0
TEXT
  8
001
 62
     4
 10
12186.917306
 20
-3374.009424
 40
20.0
  1
52.5
 50
90.000003
 41
1.2
  0
POINT
  8
001
 62
     4
 10
12129.782244
 20
-3279.009424
  0
POINT
  8
001
 62
     4
 10
12145.434589
 20
-3226.509424
  0
POINT
  8
001
 62
     4
 10
12191.917306
 20
-3226.509424
  0
LINE
  8
001
 62
     4
 10
12191.917306
 20
-3279.009424
 11
12191.917306
 21
-3374.009424
  0
LINE
  8
001
 62
     4
 10
12191.917306
 20
-3226.509424
 11
12191.917306
 21
-3211.509424
  0
ENDBLK
  8
001
  0
BLOCK
  8
001
  2
*D8
 70
     1
 10
0.0
 20
0.0
  0
LINE
  8
001
 62
     4
 10
11943.782244
 20
-2965.932259
 11
11943.782244
 21
-2873.481845
  0
LINE
  8
001
 62
     4
 10
12108.782244
 20
-2969.108967
 11
12108.782244
 21
-2873.481845
  0
LINE
  8
001
 62
     4
 10
11943.782244
 20
-2878.481845
 11
12108.782244
 21
-2878.481845
  0
INSERT
  8
001
  6
BYBLOCK
 62
     4
  2
ARROW
 10
11943.782244
 20
-2878.481845
  0
INSERT
  8
001
  6
BYBLOCK
 62
     4
  2
ARROW
 10
12108.782244
 20
-2878.481845
 50
180.0
  0
TEXT
  8
001
 62
     4
 10
11996.282244
 20
-2873.481845
 40
20.0
  1
165
 41
1.125
  0
POINT
  8
001
 62
     4
 10
11943.782244
 20
-2970.932259
  0
POINT
  8
001
 62
     4
 10
12108.782244
 20
-2974.108967
  0
POINT
  8
001
 62
     4
 10
12108.782244
 20
-2878.481845
  0
ENDBLK
  8
001
  0
BLOCK
  8
001
  2
*D9
 70
     1
 10
0.0
 20
0.0
  0
LINE
  8
001
 62
     4
 10
12135.782244
 20
-2980.009424
 11
12135.782244
 21
-2873.481845
  0
LINE
  8
001
 62
     4
 10
12108.782244
 20
-2878.481845
 11
12135.782244
 21
-2878.481845
  0
INSERT
  8
001
  6
BYBLOCK
 62
     4
  2
ARROW
 10
12135.782244
 20
-2878.481845
  0
TEXT
  8
001
 62
     4
 10
12150.782244
 20
-2873.481845
 40
20.0
  1
27
  0
POINT
  8
001
 62
     4
 10
12108.782244
 20
-2974.108967
  0
POINT
  8
001
 62
     4
 10
12135.782244
 20
-2985.009424
  0
POINT
  8
001
 62
     4
 10
12135.782244
 20
-2878.481845
  0
LINE
  8
001
 62
     4
 10
12108.782244
 20
-2878.481845
 11
12093.782244
 21
-2878.481845
  0
LINE
  8
001
 62
     4
 10
12135.782244
 20
-2878.481845
 11
12190.782244
 21
-2878.481845
  0
ENDBLK
  8
001
  0
BLOCK
  8
001
  2
*D10
 70
     1
 10
0.0
 20
0.0
  0
LINE
  8
001
 62
     4
 10
12149.131184
 20
-3031.509424
 11
12196.917306
 21
-3031.509424
  0
LINE
  8
001
 62
     4
 10
12191.917306
 20
-3226.509424
 11
12191.917306
 21
-3031.509424
  0
INSERT
  8
001
  6
BYBLOCK
 62
     4
  2
ARROW
 10
12191.917306
 20
-3226.509424
 50
90.0
  0
INSERT
  8
001
  6
BYBLOCK
 62
     4
  2
ARROW
 10
12191.917306
 20
-3031.509424
 50
270.0
  0
TEXT
  8
001
 62
     4
 10
12190.917308
 20
-3179.009424
 40
20.0
  1
195
 50
90.000003
 41
1.125
  0
TEXT
  8
001
 62
     4
 10
12190.917305
 20
-3119.009424
 40
10.0
  1
%%p0.5
 50
90.000003
 41
1.263158
  0
POINT
  8
001
 62
     4
 10
12145.434589
 20
-3226.509424
  0
POINT
  8
001
 62
     4
 10
12144.131184
 20
-3031.509424
  0
POINT
  8
001
 62
     4
 10
12191.917306
 20
-3031.509424
  0
ENDBLK
  8
001
  0
BLOCK
  8
001
  2
*D11
 70
     1
 10
0.0
 20
0.0
  0
LINE
  8
001
 62
     4
 10
11565.149782
 20
-2742.498336
 11
11665.768483
 21
-2742.498336
  0
LINE
  8
001
 62
     4
 10
11565.149782
 20
-2507.998336
 11
11665.768483
 21
-2507.998336
  0
LINE
  8
001
 62
     4
 10
11660.768483
 20
-2742.498336
 11
11660.768483
 21
-2507.998336
  0
INSERT
  8
001
  6
BYBLOCK
 62
     4
  2
ARROW
 10
11660.768483
 20
-2742.498336
 50
90.0
  0
INSERT
  8
001
  6
BYBLOCK
 62
     4
  2
ARROW
 10
11660.768483
 20
-2507.998336
 50
270.0
  0
TEXT
  8
001
 62
     4
 10
11659.768486
 20
-2685.248336
 40
20.0
  1
234.5
 50
90.000003
 41
1.153846
  0
TEXT
  8
001
 62
     4
 10
11659.768481
 20
-2585.248336
 40
10.0
  1
%%p1
 50
90.000003
 41
1.2
  0
POINT
  8
001
 62
     4
 10
11560.149782
 20
-2742.498336
  0
POINT
  8
001
 62
     4
 10
11560.149782
 20
-2507.998336
  0
POINT
  8
001
 62
     4
 10
11660.768483
 20
-2507.998336
  0
ENDBLK
  8
001
  0
BLOCK
  8
001
  2
*D12
 70
     1
 10
0.0
 20
0.0
  0
LINE
  8
001
 62
     4
 10
12134.782244
 20
-3279.009424
 11
12241.917306
 21
-3279.009424
  0
LINE
  8
001
 62
     4
 10
12134.782244
 20
-2979.009424
 11
12241.917306
 21
-2979.009424
  0
LINE
  8
001
 62
     4
 10
12236.917306
 20
-3279.009424
 11
12236.917306
 21
-2979.009424
  0
INSERT
  8
001
  6
BYBLOCK
 62
     4
  2
ARROW
 10
12236.917306
 20
-3279.009424
 50
90.0
  0
INSERT
  8
001
  6
BYBLOCK
 62
     4
  2
ARROW
 10
12236.917306
 20
-2979.009424
 50
270.0
  0
TEXT
  8
001
 62
     4
 10
12235.917307
 20
-3169.009424
 40
20.0
  1
300
 50
90.000003
 41
1.125
  0
TEXT
  8
001
 62
     4
 10
12235.917305
 20
-3109.009424
 40
10.0
  1
%%p1
 50
90.000003
 41
1.2
  0
POINT
  8
001
 62
     4
 10
12129.782244
 20
-3279.009424
  0
POINT
  8
001
 62
     4
 10
12129.782244
 20
-2979.009424
  0
POINT
  8
001
 62
     4
 10
12236.917306
 20
-2979.009424
  0
ENDBLK
  8
001
  0
ENDSEC
  0
SECTION
  2
ENTITIES
  0
INSERT
  8
001
  6
BYBLOCK
 62
     0
  2
PART0
 10
5944.49895
 20
-699.757397
 41
5.0
 42
5.0
 43
5.0
  0
DIMENSION
  8
001
 62
     4
  2
*D2
 10
10340.149782
 20
-2918.8831
 11
10355.149782
 21
-2913.8831
 13
10320.149782
 23
-2979.009424
 14
10340.149782
 24
-2979.009424
  0
DIMENSION
  8
001
 62
     4
  2
*D3
 10
11560.149782
 20
-2899.334102
 11
11485.149782
 21
-2894.334102
 13
11540.149782
 23
-2979.009424
 14
11560.149782
 24
-2979.009424
  0
DIMENSION
  8
001
 62
     4
  2
*D4
 10
11611.244362
 20
-2507.998336
 11
11606.244362
 21
-2492.998336
 13
11557.028989
 23
-2534.998336
 14
11560.149782
 24
-2507.998336
 50
90.0
  0
DIMENSION
  8
001
 62
     4
  2
*D5
 10
11611.244362
 20
-2534.998336
 11
11606.244362
 21
-2647.498336
 13
11557.028989
 23
-2699.998336
 14
11557.028989
 24
-2534.998336
 50
90.0
  0
DIMENSION
  8
001
 62
     4
  2
*D6
 10
12191.917306
 20
-2979.009424
 11
12186.917306
 21
-2964.009424
 13
12144.131184
 23
-3031.509424
 14
12129.782244
 24
-2979.009424
 50
90.0
  0
DIMENSION
  8
001
 62
     4
  2
*D7
 10
12191.917306
 20
-3226.509424
 11
12186.917306
 21
-3374.009424
 13
12129.782244
 23
-3279.009424
 14
12145.434589
 24
-3226.509424
 50
90.0
  0
DIMENSION
  8
001
 62
     4
  2
*D8
 10
12108.782244
 20
-2878.481845
 11
11996.282244
 21
-2873.481845
 13
11943.782244
 23
-2970.932259
 14
12108.782244
 24
-2974.108967
  0
DIMENSION
  8
001
 62
     4
  2
*D9
 10
12135.782244
 20
-2878.481845
 11
12150.782244
 21
-2873.481845
 13
12108.782244
 23
-2974.108967
 14
12135.782244
 24
-2985.009424
  0
DIMENSION
  8
001
 62
     4
  2
*D10
 10
12191.917306
 20
-3031.509424
 11
12190.917308
 21
-3179.009424
 13
12145.434589
 23
-3226.509424
 14
12144.131184
 24
-3031.509424
 50
90.0
  0
DIMENSION
  8
001
 62
     4
  2
*D11
 10
11660.768483
 20
-2507.998336
 11
11659.768486
 21
-2685.248336
 13
11560.149782
 23
-2742.498336
 14
11560.149782
 24
-2507.998336
 50
90.0
  0
DIMENSION
  8
001
 62
     4
  2
*D12
 10
12236.917306
 20
-2979.009424
 11
12235.917307
 21
-3169.009424
 13
12129.782244
 23
-3279.009424
 14
12129.782244
 24
-2979.009424
 50
90.0
  0
TEXT
  8
001
 10
12381.9992
 20
-3907.257372
 40
20.0
  1
スポット組立後電解研磨
 41
0.833333
  0
TEXT
  8
001
 10
12381.9992
 20
-3767.257422
 40
20.0
  1
MFBP
  0
TEXT
  8
001
 10
12471.99895
 20
-4056.632397
 40
20.0
  1
パイプラック１段用組立図
 41
0.833333
  0
TEXT
  8
001
 10
11949.99895
 20
-4144.757397
 40
12.0
  1
97,7,17
 41
1.3125
  0
TEXT
  8
001
 10
12029.99895
 20
-4144.757397
 40
12.0
  1
97,7,17
 41
1.3125
  0
TEXT
  8
001
 10
12471.99895
 20
-4015.382397
 40
20.0
  1
SK600,900,1200-1
 41
1.230769
  0
TEXT
  8
001
 10
12381.9992
 20
-3942.257397
 40
20.0
  1
指定色
 41
0.833333
  0
TEXT
  8
001
 10
12381.9992
 20
-3872.257412
 40
20.0
  1
指定色
 41
0.833333
  0
TEXT
  8
001
 10
12381.9992
 20
-3802.257427
 40
20.0
  1
光沢バレル
 41
0.833333
  0
TEXT
  8
001
 10
12774.49895
 20
-2267.257397
 40
20.0
  1
寺野
 41
0.833333
  0
LINE
  8
001
 62
     6
 10
12059.49895
 20
-4149.757397
 11
12059.49895
 21
-4163.074098
  0
LINE
  8
001
 10
10199.49895
 20
-4149.757397
 11
10199.49895
 21
-4163.074098
  0
LINE
  8
001
 10
10449.49895
 20
-4149.757397
 11
10449.49895
 21
-4163.074098
  0
LINE
  8
001
 10
10699.49895
 20
-4149.757397
 11
10699.49895
 21
-4163.074098
  0
LINE
  8
001
 10
10949.49895
 20
-4149.757397
 11
10949.49895
 21
-4163.074098
  0
LINE
  8
001
 10
11199.49895
 20
-4149.757397
 11
11199.49895
 21
-4163.074098
  0
LINE
  8
001
 10
11949.49895
 20
-4149.757397
 11
11949.49895
 21
-4163.074098
  0
LINE
  8
001
 10
10074.49895
 20
-2329.757397
 11
10061.182249
 21
-2329.757397
  0
LINE
  8
001
 10
10074.49895
 20
-2579.757397
 11
10061.182249
 21
-2579.757397
  0
LINE
  8
001
 10
10074.49895
 20
-2829.757397
 11
10061.182249
 21
-2829.757397
  0
LINE
  8
001
 10
10074.49895
 20
-3079.757397
 11
10061.182249
 21
-3079.757397
  0
LINE
  8
001
 10
10199.49895
 20
-2191.440695
 11
10199.49895
 21
-2204.757397
  0
LINE
  8
001
 10
10449.49895
 20
-2191.440695
 11
10449.49895
 21
-2204.757397
  0
LINE
  8
001
 10
10699.49895
 20
-2191.440695
 11
10699.49895
 21
-2204.757397
  0
LINE
  8
001
 10
10949.49895
 20
-2191.440695
 11
10949.49895
 21
-2204.757397
  0
LINE
  8
001
 10
11199.49895
 20
-2191.440695
 11
11199.49895
 21
-2204.757397
  0
LINE
  8
001
 10
11449.49895
 20
-2191.440695
 11
11449.49895
 21
-2204.757397
  0
LINE
  8
001
 10
11699.49895
 20
-2191.440695
 11
11699.49895
 21
-2204.757397
  0
LINE
  8
001
 10
11949.49895
 20
-2191.440695
 11
11949.49895
 21
-2204.757397
  0
LINE
  8
001
 10
12199.49895
 20
-2191.440695
 11
12199.49895
 21
-2204.757397
  0
LINE
  8
001
 10
12449.49895
 20
-2191.440695
 11
12449.49895
 21
-2204.757397
  0
LINE
  8
001
 10
12699.49895
 20
-2191.440695
 11
12699.49895
 21
-2204.757397
  0
LINE
  8
001
 10
12830.315652
 20
-2329.757397
 11
12816.99895
 21
-2329.757397
  0
LINE
  8
001
 10
12830.315652
 20
-2579.757397
 11
12816.99895
 21
-2579.757397
  0
LINE
  8
001
 10
12830.315652
 20
-2829.757397
 11
12816.99895
 21
-2829.757397
  0
LINE
  8
001
 10
12830.315652
 20
-3079.757397
 11
12816.99895
 21
-3079.757397
  0
LINE
  8
001
 10
12830.315652
 20
-3329.757397
 11
12816.99895
 21
-3329.757397
  0
LINE
  8
001
 10
10061.182249
 20
-3579.757397
 11
10074.49895
 21
-3579.757397
  0
LINE
  8
001
 10
10061.182249
 20
-3829.757397
 11
10074.49895
 21
-3829.757397
  0
LINE
  8
001
 10
10061.182249
 20
-4079.757397
 11
10074.49895
 21
-4079.757397
  0
LINE
  8
001
 62
     6
 10
10074.49895
 20
-4149.757397
 11
12816.99895
 21
-4149.757397
  0
LINE
  8
001
 62
     6
 10
12816.99895
 20
-4149.757397
 11
12816.99895
 21
-2204.757397
  0
LINE
  8
001
 62
     6
 10
12816.99895
 20
-2204.757397
 11
10074.49895
 21
-2204.757397
  0
LINE
  8
001
 62
     6
 10
10074.49895
 20
-4149.757397
 11
10074.49895
 21
-2204.757397
  0
LINE
  8
001
 10
12830.315652
 20
-3579.757397
 11
12816.99895
 21
-3579.757397
  0
LINE
  8
001
 10
12830.315652
 20
-4079.757397
 11
12816.99895
 21
-4079.757397
  0
LINE
  8
001
 10
11699.49895
 20
-4149.757397
 11
11699.49895
 21
-4163.074098
  0
LINE
  8
001
 10
11449.49895
 20
-4149.757397
 11
11449.49895
 21
-4163.074098
  0
LINE
  8
001
 10
10074.49895
 20
-3329.757397
 11
10061.182249
 21
-3329.757397
  0
LINE
  8
001
 10
10074.49895
 20
-3357.257397
 11
10061.182249
 21
-3357.257397
  0
TEXT
  8
001
 10
10046.99895
 20
-3378.653819
 40
20.0
  1
A4
 41
0.75
  0
TEXT
  8
001
 10
12671.99895
 20
-4146.007397
 40
20.0
  1
と差し替えて下さい。
 41
0.625
  0
TEXT
  8
001
 10
12766.99895
 20
-4118.507397
 40
20.0
  1
発行分
 41
0.625
  0
TEXT
  8
001
 10
12671.99895
 20
-4091.007397
 40
20.0
  1
発行
 41
0.625
  0
TEXT
  8
001
 10
12421.99895
 20
-4015.382397
 40
20.0
  1
機種
 41
0.833333
  0
TEXT
  8
001
 10
12421.99895
 20
-4056.632397
 40
20.0
  1
品名
 41
0.833333
  0
TEXT
  8
001
 10
12421.99895
 20
-4097.882397
 40
20.0
  1
図番
 41
0.833333
  0
TEXT
  8
001
 10
12046.99895
 20
-4073.507396
 40
20.0
  1
製図
 50
360.000001
 41
1.041667
 51
1.570796
  7
TATEGAKI
  0
TEXT
  8
001
 10
11966.99895
 20
-4073.507396
 40
20.0
  1
設計
 50
360.000001
 41
1.041667
 51
1.570796
  7
TATEGAKI
  0
TEXT
  8
001
 10
12126.99895
 20
-4073.507396
 40
20.0
  1
写図
 50
360.000001
 41
1.041667
 51
1.570796
  7
TATEGAKI
  0
TEXT
  8
001
 10
11891.99895
 20
-3986.007396
 40
20.0
  1
共通機種
 50
360.000001
 41
0.833333
 51
1.570796
  7
TATEGAKI
  0
TEXT
  8
001
 10
11891.99895
 20
-4083.507396
 40
20.0
  1
尺度
 50
360.000001
 41
1.25
 51
1.570796
  7
TATEGAKI
  0
TEXT
  8
001
 10
12199.49895
 20
-4118.507397
 40
20.0
  1
図検
 50
90.000003
 41
1.041667
  0
TEXT
  8
001
 10
12306.99895
 20
-4118.507397
 40
20.0
  1
図検
 50
90.000003
 41
1.041667
  0
TEXT
  8
001
 10
12181.99895
 20
-4143.507397
 40
20.0
  1
(1)
 41
1.312499
  0
TEXT
  8
001
 10
12289.49895
 20
-4143.507397
 40
20.0
  1
(2)
 41
1.125
  0
TEXT
  8
001
 10
12316.99895
 20
-4001.007396
 40
20.0
  1
承認
 50
360.000001
 41
1.25
 51
1.570796
  7
TATEGAKI
  0
TEXT
  8
001
 10
11879.49895
 20
-3977.257397
 40
20.0
  1
記号
 41
0.833333
  0
TEXT
  8
001
 10
11984.49895
 20
-3977.257397
 40
20.0
  1
部品名
 41
1.25
  0
TEXT
  8
001
 10
12334.49895
 20
-3977.257397
 40
20.0
  1
数量
 41
0.833333
  0
TEXT
  8
001
 10
12151.99895
 20
-3977.257397
 40
20.0
  1
材質・寸法
 41
1.25
  0
LINE
  8
001
 62
     6
 10
11876.99895
 20
-3984.757397
 11
12816.99895
 21
-3984.757397
  0
LINE
  8
001
 62
     6
 10
11876.99895
 20
-3739.757397
 11
11876.99895
 21
-4149.757397
  0
TEXT
  8
001
 10
12094.49895
 20
-2232.257397
 40
20.0
  1
符号
 41
0.833333
  0
LINE
  8
001
 62
     6
 10
11891.99895
 20
-2344.757397
 11
11891.99895
 21
-2204.757397
  0
LINE
  8
001
 62
     9
 10
10046.99895
 20
-3484.757397
 11
10059.02899
 21
-3472.727407
  0
LINE
  8
001
 62
     9
 10
10046.99895
 20
-3484.757397
 11
10059.02899
 21
-3496.787347
  0
LINE
  8
001
 62
     9
 10
10059.02899
 20
-3472.727407
 11
10059.02899
 21
-3496.787347
  0
LINE
  8
001
 62
     9
 10
12821.99895
 20
-3879.757397
 11
12816.99895
 21
-3879.757397
  0
LINE
  8
001
 62
     9
 10
12821.99895
 20
-3844.757397
 11
12816.99895
 21
-3844.757397
  0
LINE
  8
001
 62
     9
 10
12821.99895
 20
-3809.757397
 11
12816.99895
 21
-3809.757397
  0
LINE
  8
001
 62
     9
 10
12821.99895
 20
-3774.757397
 11
12816.99895
 21
-3774.757397
  0
LINE
  8
001
 62
     9
 10
12821.99895
 20
-3739.757397
 11
12816.99895
 21
-3739.757397
  0
LINE
  8
001
 62
     9
 10
12821.99895
 20
-3704.757397
 11
12816.99895
 21
-3704.757397
  0
LINE
  8
001
 62
     9
 10
12821.99895
 20
-3669.757397
 11
12816.99895
 21
-3669.757397
  0
LINE
  8
001
 62
     9
 10
12049.49895
 20
-4067.257397
 11
12049.49895
 21
-3984.757397
  0
LINE
  8
001
 62
     9
 10
11906.99895
 20
-4149.75725
 11
11906.99895
 21
-3984.757397
  0
LINE
  8
001
 62
     9
 10
11951.99895
 20
-4149.757397
 11
11951.99895
 21
-4067.257397
  0
LINE
  8
001
 62
     9
 10
11981.99895
 20
-4119.757397
 11
11981.99895
 21
-4067.257397
  0
LINE
  8
001
 62
     9
 10
12031.99895
 20
-4149.757397
 11
12031.99895
 21
-4067.257397
  0
LINE
  8
001
 62
     9
 10
12061.99895
 20
-4119.757397
 11
12061.99895
 21
-4067.257397
  0
LINE
  8
001
 62
     9
 10
12141.99895
 20
-4119.757397
 11
12141.99895
 21
-4067.257397
  0
LINE
  8
001
 62
     9
 10
11951.99895
 20
-4119.757397
 11
12191.99895
 21
-4119.757397
  0
LINE
  8
001
 62
     9
 10
12111.99895
 20
-4149.757397
 11
12111.99895
 21
-4067.257397
  0
LINE
  8
001
 62
     9
 10
12191.99895
 20
-4149.757397
 11
12191.99895
 21
-3984.757397
  0
LINE
  8
001
 62
     9
 10
12226.99895
 20
-4149.757397
 11
12226.99895
 21
-3984.757397
  0
LINE
  8
001
 62
     9
 10
12299.49895
 20
-4149.75725
 11
12299.49895
 21
-3984.757397
  0
LINE
  8
001
 62
     9
 10
12334.49895
 20
-4149.75725
 11
12334.49895
 21
-3984.757397
  0
LINE
  8
001
 62
     9
 10
12416.99895
 20
-4149.75725
 11
12416.99895
 21
-3984.757397
  0
LINE
  8
001
 62
     9
 10
12466.99895
 20
-4149.75725
 11
12466.99895
 21
-3984.757397
  0
LINE
  8
001
 62
     9
 10
12416.99895
 20
-4026.007397
 11
12816.99895
 21
-4026.007397
  0
LINE
  8
001
 62
     9
 10
11876.99895
 20
-4067.257397
 11
12816.99895
 21
-4067.257397
  0
LINE
  8
001
 62
     9
 10
12416.99895
 20
-4108.507397
 11
12666.99895
 21
-4108.507397
  0
LINE
  8
001
 62
     9
 10
12666.99895
 20
-4094.757397
 11
12816.99895
 21
-4094.757397
  0
LINE
  8
001
 62
     9
 10
12666.99895
 20
-4122.257397
 11
12816.99895
 21
-4122.257397
  0
LINE
  8
001
 62
     9
 10
12666.99895
 20
-4149.75725
 11
12666.99895
 21
-4067.257397
  0
LINE
  8
001
 62
     9
 10
11921.99895
 20
-3984.757397
 11
11921.99895
 21
-3739.757397
  0
LINE
  8
001
 62
     9
 10
12111.99895
 20
-3984.757397
 11
12111.99895
 21
-3739.757397
  0
LINE
  8
001
 62
     9
 10
12331.99895
 20
-3984.757397
 11
12331.99895
 21
-3739.757397
  0
LINE
  8
001
 62
     9
 10
12376.99895
 20
-3984.757397
 11
12376.99895
 21
-3739.757397
  0
LINE
  8
001
 62
     9
 10
11876.99895
 20
-3949.757397
 11
12816.99895
 21
-3949.757397
  0
LINE
  8
001
 62
     9
 10
12816.99895
 20
-2239.757397
 11
11891.99895
 21
-2239.757397
  0
LINE
  8
001
 62
     9
 10
12816.99895
 20
-2274.757397
 11
11891.99895
 21
-2274.757397
  0
LINE
  8
001
 62
     9
 10
12816.99895
 20
-2309.757397
 11
11891.99895
 21
-2309.757397
  0
LINE
  8
001
 62
     9
 10
12816.99895
 20
-2344.757397
 11
11891.99895
 21
-2344.757397
  0
TEXT
  8
001
 10
12694.49895
 20
-3977.257397
 40
20.0
  1
伸晃コード
 41
0.833333
  0
TEXT
  8
001
 10
12414.49895
 20
-3977.257397
 40
20.0
  1
仕上・処理・加工・記事
 41
0.833333
  0
LINE
  8
001
 62
     9
 10
12671.99895
 20
-3984.757397
 11
12671.99895
 21
-3739.757397
  0
LINE
  8
001
 62
     9
 10
11876.99895
 20
-3914.757397
 11
12816.99895
 21
-3914.757397
  0
LINE
  8
001
 10
10320.149782
 20
-2979.009424
 11
10340.149782
 21
-2979.009424
  0
LINE
  8
001
 10
11540.149782
 20
-2979.009424
 11
11560.149782
 21
-2979.009424
  0
LINE
  8
001
 10
11540.149782
 20
-2979.009424
 11
11540.149782
 21
-3279.009424
  0
LINE
  8
001
 10
11560.149782
 20
-3279.009424
 11
11560.149782
 21
-2979.009424
  0
LINE
  8
001
 10
10320.149782
 20
-3279.009424
 11
10320.149782
 21
-2979.009424
  0
LINE
  8
001
 10
10320.149782
 20
-2507.998336
 11
10320.149782
 21
-2742.498336
  0
LINE
  8
001
 10
10340.149782
 20
-2507.998336
 11
10340.149782
 21
-2742.498336
  0
LINE
  8
001
 10
10340.149782
 20
-2979.009424
 11
10340.149782
 21
-3279.009424
  0
LINE
  8
001
 10
10320.149782
 20
-3279.009424
 11
10340.149782
 21
-3279.009424
  0
LINE
  8
001
 10
11540.149782
 20
-3279.009424
 11
11560.149782
 21
-3279.009424
  0
LINE
  8
001
 10
10932.649782
 20
-3264.573424
 11
10932.649782
 21
-3275.009424
  0
LINE
  8
001
 10
10947.649782
 20
-3264.573424
 11
10947.649782
 21
-3275.009424
  0
LINE
  8
001
 10
10946.649782
 20
-3276.009424
 11
10933.649782
 21
-3276.009424
  0
ARC
  8
001
 10
10933.649782
 20
-3275.009424
 40
1.0
 50
180.0
 51
270.0
  0
ARC
  8
001
 10
10946.649782
 20
-3275.009424
 40
1.0
 50
270.0
 51
0.0
  0
LINE
  8
001
 10
10946.649782
 20
-3263.573424
 11
10933.649782
 21
-3263.573424
  0
ARC
  8
001
 10
10933.649782
 20
-3264.573424
 40
1.0
 50
90.0
 51
180.0
  0
ARC
  8
001
 10
10946.649782
 20
-3264.573424
 40
1.0
 50
0.0
 51
90.0
  0
LINE
  8
001
 10
11560.149782
 20
-2507.998336
 11
11560.149782
 21
-2742.498336
  0
LINE
  8
001
 10
11540.149782
 20
-2742.498336
 11
11540.149782
 21
-2507.998336
  0
ARC
  8
001
 10
10946.649782
 20
-2518.348336
 40
1.0
 50
0.0
 51
90.0
  0
ARC
  8
001
 10
10946.649782
 20
-2732.148336
 40
1.0
 50
270.0
 51
0.0
  0
LINE
  8
001
 10
10933.649782
 20
-2517.348336
 11
10946.649782
 21
-2517.348336
  0
LINE
  8
001
 10
10933.649782
 20
-2733.148336
 11
10946.649782
 21
-2733.148336
  0
ARC
  8
001
 10
10933.649782
 20
-2518.348336
 40
1.0
 50
90.0
 51
180.0
  0
ARC
  8
001
 10
10933.649782
 20
-2732.148336
 40
1.0
 50
180.0
 51
270.0
  0
LINE
  8
001
 10
10933.649782
 20
-2529.848336
 11
10946.649782
 21
-2529.848336
  0
LINE
  8
001
 10
10933.649782
 20
-2520.648336
 11
10946.649782
 21
-2520.648336
  0
LINE
  8
001
 10
10947.649782
 20
-2519.648336
 11
10947.649782
 21
-2518.348336
  0
LINE
  8
001
 10
10932.649782
 20
-2519.648336
 11
10932.649782
 21
-2518.348336
  0
LINE
  8
001
 10
10947.649782
 20
-2530.848336
 11
10947.649782
 21
-2560.248336
  0
LINE
  8
001
 10
10932.649782
 20
-2530.848336
 11
10932.649782
 21
-2560.248336
  0
LINE
  8
001
 10
10947.649782
 20
-2600.248336
 11
10947.649782
 21
-2570.248336
  0
LINE
  8
001
 10
10932.649782
 20
-2600.248336
 11
10932.649782
 21
-2570.248336
  0
LINE
  8
001
 10
10947.649782
 20
-2640.248336
 11
10947.649782
 21
-2610.248336
  0
LINE
  8
001
 10
10932.649782
 20
-2640.248336
 11
10932.649782
 21
-2610.248336
  0
LINE
  8
001
 10
10947.649782
 20
-2680.248336
 11
10947.649782
 21
-2650.248336
  0
LINE
  8
001
 10
10932.649782
 20
-2680.248336
 11
10932.649782
 21
-2650.248336
  0
LINE
  8
001
 10
10947.649782
 20
-2732.148336
 11
10947.649782
 21
-2730.248336
  0
LINE
  8
001
 10
10947.649782
 20
-2720.248336
 11
10947.649782
 21
-2690.248336
  0
LINE
  8
001
 10
10932.649782
 20
-2732.148336
 11
10932.649782
 21
-2730.248336
  0
LINE
  8
001
 10
10932.649782
 20
-2720.248336
 11
10932.649782
 21
-2690.248336
  0
ARC
  8
001
 10
10946.649782
 20
-2519.648336
 40
1.0
 50
270.0
 51
0.0
  0
ARC
  8
001
 10
10933.649782
 20
-2519.648336
 40
1.0
 50
180.0
 51
270.0
  0
ARC
  8
001
 10
10946.649782
 20
-2530.848336
 40
1.0
 50
0.0
 51
90.0
  0
ARC
  8
001
 10
10933.649782
 20
-2530.848336
 40
1.0
 50
90.0
 51
180.0
  0
ARC
  8
001
 10
10946.649782
 20
-2532.148336
 40
1.0
 50
270.0
 51
0.0
  0
ARC
  8
001
 10
10933.649782
 20
-2532.148336
 40
1.0
 50
180.0
 51
270.0
  0
ARC
  8
001
 10
10946.649782
 20
-2558.348336
 40
1.0
 50
0.0
 51
90.0
  0
ARC
  8
001
 10
10933.649782
 20
-2558.348336
 40
1.0
 50
90.0
 51
180.0
  0
ARC
  8
001
 10
10933.649782
 20
-2572.148336
 40
1.0
 50
180.0
 51
270.0
  0
ARC
  8
001
 10
10946.649782
 20
-2572.148336
 40
1.0
 50
270.0
 51
0.0
  0
ARC
  8
001
 10
10946.649782
 20
-2598.348336
 40
1.0
 50
0.0
 51
90.0
  0
ARC
  8
001
 10
10933.649782
 20
-2598.348336
 40
1.0
 50
90.0
 51
180.0
  0
ARC
  8
001
 10
10933.649782
 20
-2599.648336
 40
1.0
 50
180.0
 51
270.0
  0
ARC
  8
001
 10
10946.649782
 20
-2599.648336
 40
1.0
 50
270.0
 51
0.0
  0
ARC
  8
001
 10
10946.649782
 20
-2559.648336
 40
1.0
 50
270.0
 51
0.0
  0
ARC
  8
001
 10
10933.649782
 20
-2559.648336
 40
1.0
 50
180.0
 51
270.0
  0
ARC
  8
001
 10
10946.649782
 20
-2570.848336
 40
1.0
 50
0.0
 51
90.0
  0
ARC
  8
001
 10
10933.649782
 20
-2570.848336
 40
1.0
 50
90.0
 51
180.0
  0
ARC
  8
001
 10
10946.649782
 20
-2610.848336
 40
1.0
 50
0.0
 51
90.0
  0
ARC
  8
001
 10
10933.649782
 20
-2610.848336
 40
1.0
 50
90.0
 51
180.0
  0
ARC
  8
001
 10
10933.649782
 20
-2612.148336
 40
1.0
 50
180.0
 51
270.0
  0
ARC
  8
001
 10
10946.649782
 20
-2612.148336
 40
1.0
 50
270.0
 51
0.0
  0
ARC
  8
001
 10
10946.649782
 20
-2638.348336
 40
1.0
 50
0.0
 51
90.0
  0
ARC
  8
001
 10
10933.649782
 20
-2638.348336
 40
1.0
 50
90.0
 51
180.0
  0
ARC
  8
001
 10
10933.649782
 20
-2639.648336
 40
1.0
 50
180.0
 51
270.0
  0
ARC
  8
001
 10
10946.649782
 20
-2639.648336
 40
1.0
 50
270.0
 51
0.0
  0
ARC
  8
001
 10
10946.649782
 20
-2650.848336
 40
1.0
 50
0.0
 51
90.0
  0
ARC
  8
001
 10
10933.649782
 20
-2650.848336
 40
1.0
 50
90.0
 51
180.0
  0
ARC
  8
001
 10
10933.649782
 20
-2652.148336
 40
1.0
 50
180.0
 51
270.0
  0
ARC
  8
001
 10
10946.649782
 20
-2652.148336
 40
1.0
 50
270.0
 51
0.0
  0
ARC
  8
001
 10
10946.649782
 20
-2678.348336
 40
1.0
 50
0.0
 51
90.0
  0
ARC
  8
001
 10
10933.649782
 20
-2678.348336
 40
1.0
 50
90.0
 51
180.0
  0
ARC
  8
001
 10
10933.649782
 20
-2679.648336
 40
1.0
 50
180.0
 51
270.0
  0
ARC
  8
001
 10
10946.649782
 20
-2679.648336
 40
1.0
 50
270.0
 51
0.0
  0
ARC
  8
001
 10
10946.649782
 20
-2690.848336
 40
1.0
 50
0.0
 51
90.0
  0
ARC
  8
001
 10
10933.649782
 20
-2690.848336
 40
1.0
 50
90.0
 51
180.0
  0
ARC
  8
001
 10
10933.649782
 20
-2692.148336
 40
1.0
 50
180.0
 51
270.0
  0
ARC
  8
001
 10
10946.649782
 20
-2692.148336
 40
1.0
 50
270.0
 51
0.0
  0
ARC
  8
001
 10
10946.649782
 20
-2719.648336
 40
1.0
 50
270.0
 51
0.0
  0
ARC
  8
001
 10
10946.649782
 20
-2718.348336
 40
1.0
 50
0.0
 51
90.0
  0
ARC
  8
001
 10
10933.649782
 20
-2718.348336
 40
1.0
 50
90.0
 51
180.0
  0
ARC
  8
001
 10
10933.649782
 20
-2719.648336
 40
1.0
 50
180.0
 51
270.0
  0
LINE
  8
001
 10
10946.649782
 20
-2533.148336
 11
10933.649782
 21
-2533.148336
  0
LINE
  8
001
 10
10946.649782
 20
-2557.348336
 11
10933.649782
 21
-2557.348336
  0
LINE
  8
001
 10
10946.649782
 20
-2573.148336
 11
10933.649782
 21
-2573.148336
  0
LINE
  8
001
 10
10946.649782
 20
-2597.348336
 11
10933.649782
 21
-2597.348336
  0
LINE
  8
001
 10
10946.649782
 20
-2613.148336
 11
10933.649782
 21
-2613.148336
  0
LINE
  8
001
 10
10946.649782
 20
-2637.348336
 11
10933.649782
 21
-2637.348336
  0
LINE
  8
001
 10
10946.649782
 20
-2653.148336
 11
10933.649782
 21
-2653.148336
  0
LINE
  8
001
 10
10946.649782
 20
-2677.348336
 11
10933.649782
 21
-2677.348336
  0
LINE
  8
001
 10
10946.649782
 20
-2693.148336
 11
10933.649782
 21
-2693.148336
  0
LINE
  8
001
 10
10946.649782
 20
-2717.348336
 11
10933.649782
 21
-2717.348336
  0
LINE
  8
001
 10
10932.649782
 20
-2519.648336
 11
10932.649782
 21
-2520.248336
  0
LINE
  8
001
 10
10947.649782
 20
-2519.648336
 11
10947.649782
 21
-2520.248336
  0
ARC
  8
001
 10
10946.649782
 20
-2730.848336
 40
1.0
 50
0.0
 51
90.0
  0
ARC
  8
001
 10
10933.649782
 20
-2730.848336
 40
1.0
 50
90.0
 51
180.0
  0
LINE
  8
001
 10
10946.649782
 20
-2560.648336
 11
10933.649782
 21
-2560.648336
  0
LINE
  8
001
 10
10946.649782
 20
-2569.848336
 11
10933.649782
 21
-2569.848336
  0
LINE
  8
001
 10
10946.649782
 20
-2600.648336
 11
10933.649782
 21
-2600.648336
  0
LINE
  8
001
 10
10946.649782
 20
-2609.848336
 11
10933.649782
 21
-2609.848336
  0
LINE
  8
001
 10
10946.649782
 20
-2640.648336
 11
10933.649782
 21
-2640.648336
  0
LINE
  8
001
 10
10946.649782
 20
-2649.848336
 11
10933.649782
 21
-2649.848336
  0
LINE
  8
001
 10
10946.649782
 20
-2680.648336
 11
10933.649782
 21
-2680.648336
  0
LINE
  8
001
 10
10946.649782
 20
-2689.848336
 11
10933.649782
 21
-2689.848336
  0
LINE
  8
001
 10
10946.649782
 20
-2720.648336
 11
10933.649782
 21
-2720.648336
  0
LINE
  8
001
 10
10946.649782
 20
-2729.848336
 11
10933.649782
 21
-2729.848336
  0
LINE
  8
001
 10
10941.649782
 20
-2557.348336
 11
10941.649782
 21
-2533.148336
  0
LINE
  8
001
 10
10938.649782
 20
-2557.348336
 11
10938.649782
 21
-2533.148336
  0
LINE
  8
001
 10
10941.649782
 20
-2597.348336
 11
10941.649782
 21
-2573.148336
  0
LINE
  8
001
 10
10938.649782
 20
-2597.348336
 11
10938.649782
 21
-2573.148336
  0
LINE
  8
001
 10
10941.649782
 20
-2637.348336
 11
10941.649782
 21
-2613.148336
  0
LINE
  8
001
 10
10938.649782
 20
-2637.348336
 11
10938.649782
 21
-2613.148336
  0
LINE
  8
001
 10
10941.649782
 20
-2717.348336
 11
10941.649782
 21
-2693.148336
  0
LINE
  8
001
 10
10941.649782
 20
-2677.348336
 11
10941.649782
 21
-2653.148336
  0
LINE
  8
001
 10
10938.649782
 20
-2717.348336
 11
10938.649782
 21
-2693.148336
  0
LINE
  8
001
 10
10938.649782
 20
-2677.348336
 11
10938.649782
 21
-2653.148336
  0
LINE
  8
001
 10
11560.149782
 20
-3516.28673
 11
11560.149782
 21
-3747.53673
  0
LINE
  8
001
 10
11540.149782
 20
-3747.53673
 11
11540.149782
 21
-3516.28673
  0
LINE
  8
001
 10
10320.149782
 20
-3516.28673
 11
10320.149782
 21
-3750.78673
  0
LINE
  8
001
 10
10340.149782
 20
-3516.28673
 11
10340.149782
 21
-3750.78673
  0
ARC
  8
001
 10
10933.649782
 20
-3526.63673
 40
1.0
 50
90.0
 51
180.0
  0
ARC
  8
001
 10
10933.649782
 20
-3740.43673
 40
1.0
 50
180.0
 51
270.0
  0
LINE
  8
001
 10
10946.649782
 20
-3525.63673
 11
10933.649782
 21
-3525.63673
  0
LINE
  8
001
 10
10946.649782
 20
-3741.43673
 11
10933.649782
 21
-3741.43673
  0
ARC
  8
001
 10
10946.649782
 20
-3526.63673
 40
1.0
 50
0.0
 51
90.0
  0
ARC
  8
001
 10
10946.649782
 20
-3740.43673
 40
1.0
 50
270.0
 51
0.0
  0
LINE
  8
001
 10
10932.649782
 20
-3527.93673
 11
10932.649782
 21
-3526.63673
  0
LINE
  8
001
 10
10947.649782
 20
-3527.93673
 11
10947.649782
 21
-3526.63673
  0
LINE
  8
001
 10
10932.649782
 20
-3538.53673
 11
10932.649782
 21
-3568.53673
  0
LINE
  8
001
 10
10947.649782
 20
-3538.53673
 11
10947.649782
 21
-3568.53673
  0
LINE
  8
001
 10
10932.649782
 20
-3608.53673
 11
10932.649782
 21
-3578.53673
  0
LINE
  8
001
 10
10947.649782
 20
-3608.53673
 11
10947.649782
 21
-3578.53673
  0
LINE
  8
001
 10
10932.649782
 20
-3648.53673
 11
10932.649782
 21
-3618.53673
  0
LINE
  8
001
 10
10947.649782
 20
-3648.53673
 11
10947.649782
 21
-3618.53673
  0
LINE
  8
001
 10
10932.649782
 20
-3688.53673
 11
10932.649782
 21
-3658.53673
  0
LINE
  8
001
 10
10947.649782
 20
-3688.53673
 11
10947.649782
 21
-3658.53673
  0
LINE
  8
001
 10
10932.649782
 20
-3740.43673
 11
10932.649782
 21
-3738.53673
  0
LINE
  8
001
 10
10932.649782
 20
-3728.53673
 11
10932.649782
 21
-3698.53673
  0
LINE
  8
001
 10
10947.649782
 20
-3740.43673
 11
10947.649782
 21
-3738.53673
  0
LINE
  8
001
 10
10947.649782
 20
-3728.53673
 11
10947.649782
 21
-3698.53673
  0
LINE
  8
001
 10
10947.649782
 20
-3527.93673
 11
10947.649782
 21
-3528.53673
  0
LINE
  8
001
 10
10932.649782
 20
-3527.93673
 11
10932.649782
 21
-3528.53673
  0
LINE
  8
001
 10
10947.649782
 20
-3528.53673
 11
10947.649782
 21
-3538.53673
  0
LINE
  8
001
 10
10932.649782
 20
-3528.53673
 11
10932.649782
 21
-3538.53673
  0
LINE
  8
001
 10
10947.649782
 20
-3568.53673
 11
10947.649782
 21
-3578.529968
  0
LINE
  8
001
 10
10932.649782
 20
-3568.53673
 11
10932.649782
 21
-3578.53673
  0
LINE
  8
001
 10
10947.649782
 20
-3608.53673
 11
10947.649782
 21
-3618.53673
  0
LINE
  8
001
 10
10932.649782
 20
-3608.53673
 11
10932.649782
 21
-3618.53673
  0
LINE
  8
001
 10
10932.649782
 20
-3648.53673
 11
10932.649782
 21
-3658.53673
  0
LINE
  8
001
 10
10947.649782
 20
-3648.53673
 11
10947.649782
 21
-3658.53673
  0
LINE
  8
001
 10
10947.649782
 20
-3688.53673
 11
10947.649782
 21
-3698.53673
  0
LINE
  8
001
 10
10932.649782
 20
-3688.53673
 11
10932.649782
 21
-3698.53673
  0
LINE
  8
001
 10
10947.649782
 20
-3728.53673
 11
10947.649782
 21
-3738.53673
  0
LINE
  8
001
 10
10932.649782
 20
-3728.53673
 11
10932.649782
 21
-3738.53673
  0
LINE
  8
001
 10
11540.149782
 20
-2640.248336
 11
11560.149782
 21
-2640.248336
  0
LINE
  8
001
 10
10320.149782
 20
-2640.248336
 11
10340.149782
 21
-2640.248336
  0
LINE
  8
001
 10
11546.899782
 20
-2697.748336
 11
11553.399782
 21
-2697.748336
  0
LINE
  8
001
 10
11546.899782
 20
-2702.248336
 11
11553.399782
 21
-2702.248336
  0
ARC
  8
001
 10
11546.899782
 20
-2699.998336
 40
2.25
 50
90.0
 51
270.0
  0
ARC
  8
001
 10
11553.399782
 20
-2699.998336
 40
2.25
 50
270.0
 51
90.0
  0
LINE
  8
001
 10
11546.899782
 20
-2532.748336
 11
11553.399782
 21
-2532.748336
  0
LINE
  8
001
 10
11546.899782
 20
-2537.248336
 11
11553.399782
 21
-2537.248336
  0
ARC
  8
001
 10
11546.899782
 20
-2534.998336
 40
2.25
 50
90.0
 51
270.0
  0
ARC
  8
001
 10
11553.399782
 20
-2534.998336
 40
2.25
 50
270.0
 51
90.0
  0
LINE
  8
001
 10
10326.899782
 20
-2697.748336
 11
10333.399782
 21
-2697.748336
  0
LINE
  8
001
 10
10326.899782
 20
-2702.248336
 11
10333.399782
 21
-2702.248336
  0
ARC
  8
001
 10
10326.899782
 20
-2699.998336
 40
2.25
 50
90.0
 51
270.0
  0
ARC
  8
001
 10
10333.399782
 20
-2699.998336
 40
2.25
 50
270.0
 51
90.0
  0
LINE
  8
001
 10
10326.899782
 20
-2532.748336
 11
10333.399782
 21
-2532.748336
  0
LINE
  8
001
 10
10326.899782
 20
-2537.248336
 11
10333.399782
 21
-2537.248336
  0
ARC
  8
001
 10
10326.899782
 20
-2534.998336
 40
2.25
 50
90.0
 51
270.0
  0
ARC
  8
001
 10
10333.399782
 20
-2534.998336
 40
2.25
 50
270.0
 51
90.0
  0
LINE
  8
001
  6
DASHED
 10
10320.149782
 20
-2610.248336
 11
10340.149782
 21
-2610.248336
  0
LINE
  8
001
  6
DASHED
 10
11540.149782
 20
-2610.248336
 11
11560.149782
 21
-2610.248336
  0
CIRCLE
  8
001
 10
11550.149782
 20
-3556.53673
 40
3.25
  0
CIRCLE
  8
001
 10
10330.149782
 20
-3710.53673
 40
3.25
  0
CIRCLE
  8
001
 10
10330.149782
 20
-3556.53673
 40
3.25
  0
LINE
  8
001
  6
DASHED
 10
10326.649782
 20
-3638.53673
 11
10326.649782
 21
-3628.53673
  0
LINE
  8
001
 10
10321.649782
 20
-3638.53673
 11
10338.649782
 21
-3638.53673
  0
LINE
  8
001
 10
10321.649782
 20
-3638.53673
 11
10321.649782
 21
-3628.53673
  0
LINE
  8
001
 10
10327.649782
 20
-3638.53673
 11
10327.649782
 21
-3628.53673
  0
LINE
  8
001
 10
10326.649782
 20
-3638.53673
 11
10326.649782
 21
-3639.03673
  0
LINE
  8
001
 10
10326.649782
 20
-3639.03673
 11
10333.649782
 21
-3639.03673
  0
LINE
  8
001
  6
DASHED
 10
10333.649782
 20
-3638.53673
 11
10333.649782
 21
-3628.53673
  0
LINE
  8
001
 10
10332.649782
 20
-3638.53673
 11
10332.649782
 21
-3628.53673
  0
LINE
  8
001
 10
10333.649782
 20
-3638.53673
 11
10333.649782
 21
-3639.03673
  0
LINE
  8
001
 10
10338.649782
 20
-3628.53673
 11
10321.649782
 21
-3628.53673
  0
LINE
  8
001
 10
10333.649782
 20
-3628.53673
 11
10333.649782
 21
-3628.03673
  0
LINE
  8
001
 10
10326.649782
 20
-3628.03673
 11
10333.649782
 21
-3628.03673
  0
LINE
  8
001
 10
10326.649782
 20
-3628.53673
 11
10326.649782
 21
-3628.03673
  0
LINE
  8
001
 10
10338.649782
 20
-3638.53673
 11
10338.649782
 21
-3628.53673
  0
LINE
  8
001
  6
DASHED
 10
11546.649782
 20
-3638.53673
 11
11546.649782
 21
-3628.53673
  0
LINE
  8
001
 10
11541.649782
 20
-3638.53673
 11
11558.649782
 21
-3638.53673
  0
LINE
  8
001
 10
11541.649782
 20
-3638.53673
 11
11541.649782
 21
-3628.53673
  0
LINE
  8
001
 10
11547.649782
 20
-3638.53673
 11
11547.649782
 21
-3628.53673
  0
LINE
  8
001
 10
11546.649782
 20
-3638.53673
 11
11546.649782
 21
-3639.03673
  0
LINE
  8
001
 10
11546.649782
 20
-3639.03673
 11
11553.649782
 21
-3639.03673
  0
LINE
  8
001
  6
DASHED
 10
11553.649782
 20
-3638.53673
 11
11553.649782
 21
-3628.53673
  0
LINE
  8
001
 10
11558.649782
 20
-3638.53673
 11
11558.649782
 21
-3628.53673
  0
LINE
  8
001
 10
11552.649782
 20
-3638.53673
 11
11552.649782
 21
-3628.53673
  0
LINE
  8
001
 10
11553.649782
 20
-3638.53673
 11
11553.649782
 21
-3639.03673
  0
LINE
  8
001
 10
11558.649782
 20
-3628.53673
 11
11541.649782
 21
-3628.53673
  0
LINE
  8
001
 10
11553.649782
 20
-3628.53673
 11
11553.649782
 21
-3628.03673
  0
LINE
  8
001
 10
11546.649782
 20
-3628.03673
 11
11553.649782
 21
-3628.03673
  0
LINE
  8
001
 10
11546.649782
 20
-3628.53673
 11
11546.649782
 21
-3628.03673
  0
CIRCLE
  8
001
 10
11550.149782
 20
-3556.53673
 40
3.0
  0
CIRCLE
  8
001
 10
10330.149782
 20
-3556.53673
 40
3.0
  0
CIRCLE
  8
001
 10
10330.149782
 20
-3710.53673
 40
3.0
  0
LINE
  8
001
 10
11560.149782
 20
-2507.998336
 11
11540.149782
 21
-2507.998336
  0
LINE
  8
001
 10
11560.149782
 20
-2742.498336
 11
11540.149782
 21
-2742.498336
  0
LINE
  8
001
 10
10320.149782
 20
-2507.998336
 11
10340.149782
 21
-2507.998336
  0
LINE
  8
001
 10
10340.149782
 20
-2742.498336
 11
10320.149782
 21
-2742.498336
  0
LINE
  8
001
 10
11560.149782
 20
-3516.28673
 11
11540.149782
 21
-3516.28673
  0
LINE
  8
001
 10
10340.149782
 20
-3750.78673
 11
10320.149782
 21
-3750.78673
  0
LINE
  8
001
 10
10320.149782
 20
-3516.28673
 11
10340.149782
 21
-3516.28673
  0
LINE
  8
001
 62
     4
 10
11482.698716
 20
-3297.256785
 11
11462.893271
 21
-3297.256785
  0
LINE
  8
001
 62
     4
 10
11482.698716
 20
-2943.822865
 11
11462.567454
 21
-2943.822865
  0
LINE
  8
001
 10
11462.567454
 20
-2943.822865
 11
11473.286069
 21
-2937.63447
  0
LINE
  8
001
 10
11462.893271
 20
-3297.256785
 11
11471.779226
 21
-3302.387093
  0
LINE
  8
001
 10
11471.779226
 20
-3302.387093
 11
11471.779226
 21
-3293.667041
  0
LINE
  8
001
 10
11473.286069
 20
-2937.63447
 11
11473.286069
 21
-2948.867264
  0
TEXT
  8
001
 10
11461.871916
 20
-2930.62152
 40
20.0
  1
A
  0
TEXT
  8
001
 10
11461.871916
 20
-3330.973028
 40
20.0
  1
A
  0
LINE
  8
001
 10
11540.149782
 20
-3262.009424
 11
10340.149782
 21
-3262.009424
  0
LINE
  8
001
 10
11540.149782
 20
-2520.248336
 11
10947.449782
 21
-2520.248336
  0
LINE
  8
001
 10
11540.149782
 20
-2530.248336
 11
10947.449782
 21
-2530.248336
  0
LINE
  8
001
 10
11540.149782
 20
-2560.248336
 11
10947.449782
 21
-2560.248336
  0
LINE
  8
001
 10
11540.149782
 20
-2570.248336
 11
10947.449782
 21
-2570.248336
  0
LINE
  8
001
 10
11540.149782
 20
-2600.248336
 11
10947.449782
 21
-2600.248336
  0
LINE
  8
001
 10
11540.149782
 20
-2610.248336
 11
10947.449782
 21
-2610.248336
  0
LINE
  8
001
 10
11540.149782
 20
-2640.248336
 11
10947.449782
 21
-2640.248336
  0
LINE
  8
001
 10
11540.149782
 20
-2650.248336
 11
10947.449782
 21
-2650.248336
  0
LINE
  8
001
 10
11540.149782
 20
-2680.248336
 11
10947.449782
 21
-2680.248336
  0
LINE
  8
001
 10
11540.149782
 20
-2690.248336
 11
10947.449782
 21
-2690.248336
  0
LINE
  8
001
 10
11540.149782
 20
-2720.248336
 11
10947.449782
 21
-2720.248336
  0
LINE
  8
001
 10
11540.149782
 20
-2730.248336
 11
10947.449782
 21
-2730.248336
  0
LINE
  8
001
 10
10340.149782
 20
-2520.248336
 11
10932.849782
 21
-2520.248336
  0
LINE
  8
001
 10
10340.149782
 20
-2530.248336
 11
10932.849782
 21
-2530.248336
  0
LINE
  8
001
 10
10340.149782
 20
-2560.248336
 11
10932.849782
 21
-2560.248336
  0
LINE
  8
001
 10
10340.149782
 20
-2570.248336
 11
10932.849782
 21
-2570.248336
  0
LINE
  8
001
 10
10340.149782
 20
-2600.248336
 11
10932.849782
 21
-2600.248336
  0
LINE
  8
001
 10
10340.149782
 20
-2610.248336
 11
10932.849782
 21
-2610.248336
  0
LINE
  8
001
 10
10340.149782
 20
-2640.248336
 11
10932.849782
 21
-2640.248336
  0
LINE
  8
001
 10
10340.149782
 20
-2650.248336
 11
10932.849782
 21
-2650.248336
  0
LINE
  8
001
 10
10340.149782
 20
-2680.248336
 11
10932.849782
 21
-2680.248336
  0
LINE
  8
001
 10
10340.149782
 20
-2690.248336
 11
10932.849782
 21
-2690.248336
  0
LINE
  8
001
 10
10340.149782
 20
-2720.248336
 11
10932.849782
 21
-2720.248336
  0
LINE
  8
001
 10
10340.149782
 20
-2730.248336
 11
10932.849782
 21
-2730.248336
  0
LINE
  8
001
 10
10340.149782
 20
-3528.53673
 11
10932.649782
 21
-3528.53673
  0
LINE
  8
001
 10
10947.649782
 20
-3528.53673
 11
11540.149782
 21
-3528.53673
  0
LINE
  8
001
 10
10340.149782
 20
-3538.53673
 11
10932.649782
 21
-3538.53673
  0
LINE
  8
001
 10
10947.649782
 20
-3538.53673
 11
11540.149782
 21
-3538.53673
  0
LINE
  8
001
 10
10340.149782
 20
-3568.53673
 11
10932.649782
 21
-3568.53673
  0
LINE
  8
001
 10
10947.649782
 20
-3568.53673
 11
11540.149782
 21
-3568.53673
  0
LINE
  8
001
 10
10340.149782
 20
-3578.53673
 11
10932.649782
 21
-3578.53673
  0
LINE
  8
001
 10
10947.649782
 20
-3578.53673
 11
11540.149782
 21
-3578.53673
  0
LINE
  8
001
 10
10340.149782
 20
-3608.53673
 11
10932.649782
 21
-3608.53673
  0
LINE
  8
001
 10
10947.649782
 20
-3608.53673
 11
11540.149782
 21
-3608.53673
  0
LINE
  8
001
 10
10340.149782
 20
-3618.53673
 11
10932.649782
 21
-3618.53673
  0
LINE
  8
001
 10
10947.649782
 20
-3618.53673
 11
11540.149782
 21
-3618.53673
  0
LINE
  8
001
 10
10340.149782
 20
-3648.53673
 11
10932.649782
 21
-3648.53673
  0
LINE
  8
001
 10
10947.649782
 20
-3648.53673
 11
11540.149782
 21
-3648.53673
  0
LINE
  8
001
 10
10340.149782
 20
-3658.53673
 11
10932.649782
 21
-3658.53673
  0
LINE
  8
001
 10
10947.649782
 20
-3658.53673
 11
11540.149782
 21
-3658.53673
  0
LINE
  8
001
 10
10340.149782
 20
-3688.53673
 11
10932.649782
 21
-3688.53673
  0
LINE
  8
001
 10
10947.649782
 20
-3688.53673
 11
11540.149782
 21
-3688.53673
  0
LINE
  8
001
 10
10340.149782
 20
-3698.53673
 11
10932.649782
 21
-3698.53673
  0
LINE
  8
001
 10
10947.649782
 20
-3698.53673
 11
11540.149782
 21
-3698.53673
  0
LINE
  8
001
 10
10340.149782
 20
-3728.53673
 11
10932.649782
 21
-3728.53673
  0
LINE
  8
001
 10
10947.649782
 20
-3728.53673
 11
11540.149782
 21
-3728.53673
  0
LINE
  8
001
 10
10340.149782
 20
-3738.53673
 11
10932.649782
 21
-3738.53673
  0
LINE
  8
001
 10
10947.649782
 20
-3738.53673
 11
11540.149782
 21
-3738.53673
  0
CIRCLE
  8
001
 10
11550.149782
 20
-3708.53673
 40
3.0
  0
POLYLINE
  8
001
 66
     1
  0
VERTEX
  8
001
 10
11571.867085
 20
-3678.797049
  0
VERTEX
  8
001
 10
11569.770888
 20
-3680.412879
  0
VERTEX
  8
001
 10
11567.628347
 20
-3681.949781
  0
VERTEX
  8
001
 10
11565.393118
 20
-3683.328826
  0
VERTEX
  8
001
 10
11563.310955
 20
-3684.366236
  0
VERTEX
  8
001
 10
11561.14416
 20
-3685.238276
  0
VERTEX
  8
001
 10
11558.91688
 20
-3685.964836
  0
VERTEX
  8
001
 10
11556.653263
 20
-3686.565809
  0
VERTEX
  8
001
 10
11554.380313
 20
-3687.066195
  0
VERTEX
  8
001
 10
11552.103063
 20
-3687.518373
  0
VERTEX
  8
001
 10
11549.829344
 20
-3687.979318
  0
VERTEX
  8
001
 10
11547.566987
 20
-3688.506001
  0
VERTEX
  8
001
 10
11545.323821
 20
-3689.155396
  0
VERTEX
  8
001
 10
11542.360903
 20
-3690.296849
  0
VERTEX
  8
001
 10
11539.51573
 20
-3691.752261
  0
VERTEX
  8
001
 10
11536.857223
 20
-3693.510933
  0
VERTEX
  8
001
 10
11534.454302
 20
-3695.562163
  0
VERTEX
  8
001
 10
11532.375887
 20
-3697.895251
  0
VERTEX
  8
001
 10
11530.961594
 20
-3699.962506
  0
VERTEX
  8
001
 10
11529.700741
 20
-3702.141795
  0
VERTEX
  8
001
 10
11528.491507
 20
-3704.369218
  0
VERTEX
  8
001
 10
11527.213319
 20
-3706.672461
  0
VERTEX
  8
001
 10
11525.936438
 20
-3708.974098
  0
VERTEX
  8
001
 10
11524.715993
 20
-3711.289429
  0
VERTEX
  8
001
 10
11523.607116
 20
-3713.63375
  0
VERTEX
  8
001
 10
11522.664937
 20
-3716.022358
  0
VERTEX
  8
001
 10
11521.862416
 20
-3718.732731
  0
VERTEX
  8
001
 10
11521.283135
 20
-3721.514152
  0
VERTEX
  8
001
 10
11520.878526
 20
-3724.364659
  0
VERTEX
  8
001
 10
11520.600019
 20
-3727.282291
  0
VERTEX
  8
001
 10
11520.399048
 20
-3730.265085
  0
VERTEX
  8
001
 10
11520.230459
 20
-3732.673319
  0
VERTEX
  8
001
 10
11519.869245
 20
-3734.984898
  0
VERTEX
  8
001
 10
11519.104255
 20
-3737.062751
  0
VERTEX
  8
001
 10
11517.805431
 20
-3738.804629
  0
VERTEX
  8
001
 10
11516.107268
 20
-3740.316625
  0
VERTEX
  8
001
 10
11514.216901
 20
-3741.734557
  0
VERTEX
  8
001
 10
11512.341466
 20
-3743.194246
  0
VERTEX
  8
001
 10
11510.688098
 20
-3744.831511
  0
VERTEX
  8
001
 10
11509.517376
 20
-3746.567441
  0
VERTEX
  8
001
 10
11508.672276
 20
-3748.501535
  0
VERTEX
  8
001
 10
11508.121208
 20
-3750.57113
  0
VERTEX
  8
001
 10
11507.832584
 20
-3752.71356
  0
VERTEX
  8
001
 10
11507.774813
 20
-3754.866159
  0
VERTEX
  8
001
 10
11507.917588
 20
-3757.017862
  0
VERTEX
  8
001
 10
11508.21544
 20
-3759.12871
  0
VERTEX
  8
001
 10
11508.616677
 20
-3761.212322
  0
VERTEX
  8
001
 10
11509.069606
 20
-3763.282316
  0
SEQEND
  8
001
  0
CIRCLE
  8
001
 10
11550.149782
 20
-3693.53673
 40
2.15
  0
CIRCLE
  8
001
 10
11550.149782
 20
-3733.53673
 40
2.15
  0
CIRCLE
  8
001
 10
11550.149782
 20
-3733.53673
 40
2.5
  0
CIRCLE
  8
001
 10
11550.149782
 20
-3693.53673
 40
2.5
  0
LINE
  8
001
 10
11559.149782
 20
-3748.53673
 11
11541.149782
 21
-3748.53673
  0
ARC
  8
001
 10
11541.149782
 20
-3747.53673
 40
1.0
 50
180.0
 51
270.0
  0
ARC
  8
001
 10
11559.149782
 20
-3747.53673
 40
1.0
 50
270.0
 51
0.0
  0
POLYLINE
  8
001
 62
     4
 66
     1
  0
VERTEX
  8
001
 62
     4
 10
10934.104765
 20
-3355.514986
  0
VERTEX
  8
001
 62
     4
 10
10959.104765
 20
-3355.514986
  0
VERTEX
  8
001
 62
     4
 10
10946.604765
 20
-3333.864351
  0
VERTEX
  8
001
 62
     4
 10
10934.104765
 20
-3355.514986
  0
SEQEND
  8
001
  0
TEXT
  8
001
 62
     4
 10
10941.604765
 20
-3353.298107
 40
10.0
  1
2
  0
POLYLINE
  8
001
 62
     4
 66
     1
  0
VERTEX
  8
001
 62
     4
 10
10677.227935
 20
-3355.514986
  0
VERTEX
  8
001
 62
     4
 10
10702.227935
 20
-3355.514986
  0
VERTEX
  8
001
 62
     4
 10
10689.727935
 20
-3333.864351
  0
VERTEX
  8
001
 62
     4
 10
10677.227935
 20
-3355.514986
  0
SEQEND
  8
001
  0
POLYLINE
  8
001
 62
     4
 66
     1
  0
VERTEX
  8
001
 62
     4
 10
10757.403858
 20
-3355.514986
  0
VERTEX
  8
001
 62
     4
 10
10782.403858
 20
-3355.514986
  0
VERTEX
  8
001
 62
     4
 10
10769.903858
 20
-3333.864351
  0
VERTEX
  8
001
 62
     4
 10
10757.403858
 20
-3355.514986
  0
SEQEND
  8
001
  0
TEXT
  8
001
 62
     4
 10
10764.903858
 20
-3353.298107
 40
10.0
  1
4
  0
TEXT
  8
001
 62
     4
 10
10684.727935
 20
-3353.298107
 40
10.0
  1
4
  0
LINE
  8
001
 10
11901.282244
 20
-3273.009424
 11
11901.282244
 21
-2985.009424
  0
LINE
  8
001
 10
12135.782244
 20
-2985.009424
 11
12135.782244
 21
-3273.009424
  0
LINE
  8
001
 10
11907.282244
 20
-3279.009424
 11
12129.782244
 21
-3279.009424
  0
LINE
  8
001
 10
11903.282244
 20
-3273.009424
 11
11903.282244
 21
-2985.009424
  0
LINE
  8
001
 10
12129.782244
 20
-3277.009424
 11
11907.282244
 21
-3277.009424
  0
LINE
  8
001
 10
12133.782244
 20
-2985.009424
 11
12133.782244
 21
-3273.009424
  0
ARC
  8
001
 10
12129.782244
 20
-3273.009424
 40
4.0
 50
270.0
 51
0.0
  0
ARC
  8
001
 10
12129.782244
 20
-2985.009424
 40
4.0
 50
0.0
 51
90.0
  0
ARC
  8
001
 10
11907.282244
 20
-2985.009424
 40
4.0
 50
90.0
 51
180.0
  0
ARC
  8
001
 10
11907.282244
 20
-3273.009424
 40
4.0
 50
180.0
 51
270.0
  0
ARC
  8
001
 10
12129.782244
 20
-3273.009424
 40
6.0
 50
270.0
 51
0.0
  0
ARC
  8
001
 10
12129.782244
 20
-2985.009424
 40
6.0
 50
0.0
 51
90.0
  0
ARC
  8
001
 10
11907.282244
 20
-2985.009424
 40
6.0
 50
90.0
 51
180.0
  0
ARC
  8
001
 10
11907.282244
 20
-3273.009424
 40
6.0
 50
180.0
 51
270.0
  0
LINE
  8
001
 10
12033.532244
 20
-2983.009424
 11
12033.532244
 21
-2981.009424
  0
LINE
  8
001
 10
12033.532244
 20
-2983.009424
 11
12003.532244
 21
-2983.009424
  0
LINE
  8
001
 10
12003.532244
 20
-2981.009424
 11
12003.532244
 21
-2979.009424
  0
ARC
  8
001
 10
12003.532244
 20
-2979.009424
 40
4.0
 50
221.810315
 51
270.0
  0
ARC
  8
001
 10
12003.532244
 20
-2979.009424
 40
2.0
 50
210.0
 51
270.0
  0
LINE
  8
001
 10
11907.282244
 20
-2979.009424
 11
12000.068142
 21
-2979.009424
  0
LINE
  8
001
 10
12003.532244
 20
-2979.009424
 11
12129.782244
 21
-2979.009424
  0
LINE
  8
001
 10
12000.068142
 20
-2979.009424
 11
11907.282244
 21
-2979.009424
  0
LINE
  8
001
 10
12003.532244
 20
-2979.009424
 11
12129.782244
 21
-2979.009424
  0
LINE
  8
001
 10
11999.060108
 20
-2981.009424
 11
11907.282244
 21
-2981.009424
  0
LINE
  8
001
 10
12003.532244
 20
-2981.009424
 11
12129.782244
 21
-2981.009424
  0
ARC
  8
001
 10
11999.060108
 20
-2983.009424
 40
2.0
 50
41.810315
 51
90.0
  0
ARC
  8
001
 10
12000.068142
 20
-2981.009424
 40
2.0
 50
30.0
 51
90.0
  0
LINE
  8
001
 10
12133.532244
 20
-3273.009424
 11
12133.532244
 21
-3260.009424
  0
LINE
  8
001
 10
11903.532244
 20
-3273.009424
 11
11903.532244
 21
-3260.009424
  0
LINE
  8
001
 10
12132.532244
 20
-3259.009424
 11
11904.532244
 21
-3259.009424
  0
ARC
  8
001
 10
11904.532244
 20
-3260.009424
 40
1.0
 50
90.0
 51
180.0
  0
ARC
  8
001
 10
12132.532244
 20
-3260.009424
 40
1.0
 50
0.0
 51
90.0
  0
ARC
  8
001
 10
11907.532244
 20
-3273.009424
 40
4.0
 50
180.0
 51
270.0
  0
ARC
  8
001
 10
12129.532244
 20
-3273.009424
 40
4.0
 50
270.0
 51
0.0
  0
LINE
  8
001
 10
12357.795016
 20
-3273.009424
 11
12357.795016
 21
-2985.009424
  0
LINE
  8
001
 10
12592.295016
 20
-2985.009424
 11
12592.295016
 21
-3273.009424
  0
LINE
  8
001
 10
12363.795016
 20
-3279.009424
 11
12586.295016
 21
-3279.009424
  0
LINE
  8
001
 10
12359.795016
 20
-3273.009424
 11
12359.795016
 21
-2985.009424
  0
LINE
  8
001
 10
12586.295016
 20
-3277.009424
 11
12363.795016
 21
-3277.009424
  0
LINE
  8
001
 10
12590.295016
 20
-2985.009424
 11
12590.295016
 21
-3273.009424
  0
ARC
  8
001
 10
12586.295016
 20
-3273.009424
 40
4.0
 50
270.0
 51
0.0
  0
ARC
  8
001
 10
12586.295016
 20
-2985.009424
 40
4.0
 50
0.0
 51
90.0
  0
ARC
  8
001
 10
12363.795016
 20
-2985.009424
 40
4.0
 50
90.0
 51
180.0
  0
ARC
  8
001
 10
12363.795016
 20
-3273.009424
 40
4.0
 50
180.0
 51
270.0
  0
ARC
  8
001
 10
12586.295016
 20
-3273.009424
 40
6.0
 50
270.0
 51
0.0
  0
ARC
  8
001
 10
12586.295016
 20
-2985.009424
 40
6.0
 50
0.0
 51
90.0
  0
ARC
  8
001
 10
12363.795016
 20
-2985.009424
 40
6.0
 50
90.0
 51
180.0
  0
ARC
  8
001
 10
12363.795016
 20
-3273.009424
 40
6.0
 50
180.0
 51
270.0
  0
LINE
  8
001
 10
12490.045016
 20
-2983.009424
 11
12490.045016
 21
-2981.009424
  0
LINE
  8
001
 10
12490.045016
 20
-2983.009424
 11
12460.045016
 21
-2983.009424
  0
LINE
  8
001
 10
12460.045016
 20
-2981.009424
 11
12460.045016
 21
-2979.009424
  0
ARC
  8
001
 10
12460.045016
 20
-2979.009424
 40
4.0
 50
221.810315
 51
270.0
  0
ARC
  8
001
 10
12460.045016
 20
-2979.009424
 40
2.0
 50
210.0
 51
270.0
  0
LINE
  8
001
 10
12363.795016
 20
-2979.009424
 11
12456.580915
 21
-2979.009424
  0
LINE
  8
001
 10
12460.045016
 20
-2979.009424
 11
12586.545016
 21
-2979.009424
  0
LINE
  8
001
 10
12456.580915
 20
-2979.009424
 11
12363.795016
 21
-2979.009424
  0
LINE
  8
001
 10
12460.045016
 20
-2979.009424
 11
12586.295016
 21
-2979.009424
  0
LINE
  8
001
 10
12455.57288
 20
-2981.009424
 11
12363.795016
 21
-2981.009424
  0
LINE
  8
001
 10
12460.045016
 20
-2981.009424
 11
12586.295016
 21
-2981.009424
  0
ARC
  8
001
 10
12455.57288
 20
-2983.009424
 40
2.0
 50
41.810315
 51
90.0
  0
ARC
  8
001
 10
12456.580915
 20
-2981.009424
 40
2.0
 50
30.0
 51
90.0
  0
CIRCLE
  8
001
 10
12375.045016
 20
-3267.009424
 40
5.0
  0
CIRCLE
  8
001
 10
12375.045016
 20
-3267.009424
 40
4.6
  0
ARC
  8
001
 10
12381.095016
 20
-3264.773356
 40
1.45
 50
20.284212
 51
200.284196
  0
ARC
  8
001
 10
12368.995016
 20
-3264.773356
 40
1.45
 50
339.715788
 51
159.715771
  0
CIRCLE
  8
001
 10
12415.045016
 20
-3267.009424
 40
5.0
  0
CIRCLE
  8
001
 10
12415.045016
 20
-3267.009424
 40
4.6
  0
ARC
  8
001
 10
12421.095016
 20
-3264.773356
 40
1.45
 50
20.284212
 51
200.284196
  0
ARC
  8
001
 10
12408.995016
 20
-3264.773356
 40
1.45
 50
339.715788
 51
159.715771
  0
CIRCLE
  8
001
 10
12455.045016
 20
-3267.009424
 40
5.0
  0
CIRCLE
  8
001
 10
12455.045016
 20
-3267.009424
 40
4.6
  0
ARC
  8
001
 10
12461.095016
 20
-3264.773356
 40
1.45
 50
20.284212
 51
200.284196
  0
ARC
  8
001
 10
12448.995016
 20
-3264.773356
 40
1.45
 50
339.715788
 51
159.715771
  0
CIRCLE
  8
001
 10
12495.045016
 20
-3267.009424
 40
5.0
  0
CIRCLE
  8
001
 10
12495.045016
 20
-3267.009424
 40
4.6
  0
ARC
  8
001
 10
12501.095016
 20
-3264.773356
 40
1.45
 50
20.284212
 51
200.284196
  0
ARC
  8
001
 10
12488.995016
 20
-3264.773356
 40
1.45
 50
339.715788
 51
159.715771
  0
CIRCLE
  8
001
 10
12535.045016
 20
-3267.009424
 40
5.0
  0
CIRCLE
  8
001
 10
12535.045016
 20
-3267.009424
 40
4.6
  0
ARC
  8
001
 10
12541.095016
 20
-3264.773356
 40
1.45
 50
20.284212
 51
200.284196
  0
ARC
  8
001
 10
12528.995016
 20
-3264.773356
 40
1.45
 50
339.715788
 51
159.715771
  0
CIRCLE
  8
001
 10
12575.045016
 20
-3267.009424
 40
5.0
  0
CIRCLE
  8
001
 10
12575.045016
 20
-3267.009424
 40
4.6
  0
ARC
  8
001
 10
12581.095016
 20
-3264.773356
 40
1.45
 50
20.284212
 51
200.284196
  0
ARC
  8
001
 10
12568.995016
 20
-3264.773356
 40
1.45
 50
339.715788
 51
159.715771
  0
LINE
  8
001
 10
12367.145016
 20
-3267.009424
 11
12367.145016
 21
-3276.009424
  0
LINE
  8
001
 10
12582.945016
 20
-3267.009424
 11
12582.945016
 21
-3276.009424
  0
LINE
  8
001
 10
12383.888658
 20
-3267.009424
 11
12406.201374
 21
-3267.009424
  0
LINE
  8
001
 10
12423.888658
 20
-3267.009424
 11
12446.201374
 21
-3267.009424
  0
LINE
  8
001
 10
12463.888658
 20
-3267.009424
 11
12486.201374
 21
-3267.009424
  0
LINE
  8
001
 10
12503.888658
 20
-3267.009424
 11
12526.201374
 21
-3267.009424
  0
LINE
  8
001
 10
12543.888658
 20
-3267.009424
 11
12566.201374
 21
-3267.009424
  0
LINE
  8
001
 10
12586.295016
 20
-3277.009424
 11
12363.795016
 21
-3277.009424
  0
ARC
  8
001
 10
12375.045016
 20
-3267.009424
 40
7.9
 50
159.715788
 51
180.0
  0
ARC
  8
001
 10
12375.045016
 20
-3267.009424
 40
7.9
 50
325.819784
 51
20.284212
  0
LINE
  8
001
 10
12407.682272
 20
-3273.009424
 11
12382.40776
 21
-3273.009424
  0
LINE
  8
001
 10
12447.682272
 20
-3273.009424
 11
12422.40776
 21
-3273.009424
  0
LINE
  8
001
 10
12487.682272
 20
-3273.009424
 11
12462.40776
 21
-3273.009424
  0
LINE
  8
001
 10
12527.682272
 20
-3273.009424
 11
12502.40776
 21
-3273.009424
  0
LINE
  8
001
 10
12567.682272
 20
-3273.009424
 11
12542.40776
 21
-3273.009424
  0
ARC
  8
001
 10
12575.045016
 20
-3267.009424
 40
7.9
 50
159.715788
 51
214.180216
  0
ARC
  8
001
 10
12575.045016
 20
-3267.009424
 40
7.9
 50
360.0
 51
20.284212
  0
ARC
  8
001
 10
12382.40776
 20
-3272.009424
 40
1.0
 50
145.819784
 51
270.0
  0
ARC
  8
001
 10
12415.045016
 20
-3267.009424
 40
7.9
 50
159.715788
 51
214.180216
  0
ARC
  8
001
 10
12415.045016
 20
-3267.009424
 40
7.9
 50
325.819784
 51
20.284212
  0
ARC
  8
001
 10
12455.045016
 20
-3267.009424
 40
7.9
 50
159.715788
 51
214.180216
  0
ARC
  8
001
 10
12455.045016
 20
-3267.009424
 40
7.9
 50
325.819784
 51
20.284212
  0
ARC
  8
001
 10
12495.045016
 20
-3267.009424
 40
7.9
 50
159.715788
 51
214.180216
  0
ARC
  8
001
 10
12495.045016
 20
-3267.009424
 40
7.9
 50
325.819784
 51
20.284212
  0
ARC
  8
001
 10
12535.045016
 20
-3267.009424
 40
7.9
 50
159.715788
 51
214.180216
  0
ARC
  8
001
 10
12535.045016
 20
-3267.009424
 40
7.9
 50
325.819784
 51
20.284212
  0
ARC
  8
001
 10
12407.682272
 20
-3272.009424
 40
1.0
 50
270.0
 51
34.180216
  0
ARC
  8
001
 10
12422.40776
 20
-3272.009424
 40
1.0
 50
145.819784
 51
270.0
  0
ARC
  8
001
 10
12447.682272
 20
-3272.009424
 40
1.0
 50
270.0
 51
34.180216
  0
ARC
  8
001
 10
12462.40776
 20
-3272.009424
 40
1.0
 50
145.819784
 51
270.0
  0
ARC
  8
001
 10
12487.682272
 20
-3272.009424
 40
1.0
 50
270.0
 51
34.180216
  0
ARC
  8
001
 10
12502.40776
 20
-3272.009424
 40
1.0
 50
145.819784
 51
270.0
  0
ARC
  8
001
 10
12527.682272
 20
-3272.009424
 40
1.0
 50
270.0
 51
34.180216
  0
ARC
  8
001
 10
12542.40776
 20
-3272.009424
 40
1.0
 50
145.819784
 51
270.0
  0
ARC
  8
001
 10
12567.682272
 20
-3272.009424
 40
1.0
 50
270.0
 51
34.180216
  0
ARC
  8
001
 10
12383.888658
 20
-3266.009424
 40
1.0
 50
186.451351
 51
270.0
  0
ARC
  8
001
 10
12406.201374
 20
-3266.009424
 40
1.0
 50
270.0
 51
353.548649
  0
ARC
  8
001
 10
12423.888658
 20
-3266.009424
 40
1.0
 50
186.451351
 51
270.0
  0
ARC
  8
001
 10
12446.201374
 20
-3266.009424
 40
1.0
 50
270.0
 51
353.548649
  0
ARC
  8
001
 10
12463.888658
 20
-3266.009424
 40
1.0
 50
186.451351
 51
270.0
  0
ARC
  8
001
 10
12486.201374
 20
-3266.009424
 40
1.0
 50
270.0
 51
353.548649
  0
ARC
  8
001
 10
12503.888658
 20
-3266.009424
 40
1.0
 50
186.451351
 51
270.0
  0
ARC
  8
001
 10
12526.201374
 20
-3266.009424
 40
1.0
 50
270.0
 51
353.548649
  0
ARC
  8
001
 10
12543.888658
 20
-3266.009424
 40
1.0
 50
186.451351
 51
270.0
  0
ARC
  8
001
 10
12566.201374
 20
-3266.009424
 40
1.0
 50
270.0
 51
353.548649
  0
ARC
  8
001
 10
12581.945016
 20
-3276.009424
 40
1.0
 50
270.0
 51
0.0
  0
ARC
  8
001
 10
12368.145016
 20
-3276.009424
 40
1.0
 50
180.0
 51
270.0
  0
LINE
  8
001
 10
12083.098654
 20
-2565.325411
 11
11993.098654
 21
-2565.325411
  0
LINE
  8
001
 10
11988.098654
 20
-2650.325411
 11
11988.098654
 21
-2570.325411
  0
LINE
  8
001
 10
12088.098654
 20
-2570.325411
 11
12088.098654
 21
-2650.325411
  0
ARC
  8
001
 10
11993.098654
 20
-2570.325411
 40
5.0
 50
90.0
 51
180.0
  0
ARC
  8
001
 10
11993.098654
 20
-2650.325411
 40
5.0
 50
180.0
 51
270.0
  0
ARC
  8
001
 10
12083.098654
 20
-2650.325411
 40
5.0
 50
270.0
 51
0.0
  0
ARC
  8
001
 10
12083.098654
 20
-2570.325411
 40
5.0
 50
0.0
 51
90.0
  0
LINE
  8
001
 10
11999.348654
 20
-2635.325411
 11
11993.098654
 21
-2635.325411
  0
ARC
  8
001
 10
12009.348654
 20
-2570.325411
 40
5.0
 50
90.0
 51
180.0
  0
ARC
  8
001
 10
11999.348654
 20
-2630.325411
 40
5.0
 50
270.0
 51
0.0
  0
ARC
  8
001
 10
11993.098654
 20
-2640.325411
 40
5.0
 50
90.0
 51
180.0
  0
LINE
  8
001
 10
12021.848654
 20
-2655.325411
 11
12021.848654
 21
-2626.825411
  0
LINE
  8
001
 10
12054.348654
 20
-2655.325411
 11
12054.348654
 21
-2626.825411
  0
LINE
  8
001
 10
12004.348654
 20
-2630.325411
 11
12004.348654
 21
-2570.325411
  0
LINE
  8
001
 10
12088.098654
 20
-2655.325411
 11
12083.098654
 21
-2655.325411
  0
LINE
  8
001
 10
11988.098654
 20
-2655.325411
 11
11993.098654
 21
-2655.325411
  0
LINE
  8
001
 10
11988.098654
 20
-2655.325411
 11
11988.098654
 21
-2665.325411
  0
LINE
  8
001
 10
12088.098654
 20
-2665.325411
 11
12088.098654
 21
-2655.325411
  0
LINE
  8
001
 10
11988.098654
 20
-2655.325411
 11
11988.098654
 21
-2650.325411
  0
LINE
  8
001
 10
12088.098654
 20
-2655.325411
 11
12088.098654
 21
-2650.325411
  0
LINE
  8
001
 10
12055.598654
 20
-2665.325411
 11
12055.598654
 21
-2655.325411
  0
LINE
  8
001
 10
12020.598654
 20
-2665.325411
 11
12020.598654
 21
-2655.325411
  0
LINE
  8
001
 10
12023.098654
 20
-2626.536736
 11
12017.098654
 21
-2623.072634
  0
LINE
  8
001
 10
12053.098654
 20
-2626.536736
 11
12059.098654
 21
-2623.072634
  0
LINE
  8
001
 10
12054.348654
 20
-2626.825411
 11
12061.848654
 21
-2622.495284
  0
LINE
  8
001
 10
12021.848654
 20
-2626.825411
 11
12014.348654
 21
-2622.495284
  0
LINE
  8
001
 10
12014.348654
 20
-2622.495284
 11
12014.348654
 21
-2565.325411
  0
LINE
  8
001
 10
12061.848654
 20
-2622.495284
 11
12061.848654
 21
-2565.325411
  0
LINE
  8
001
 10
12024.098654
 20
-2624.804685
 11
12018.098654
 21
-2621.340584
  0
LINE
  8
001
 10
12052.098654
 20
-2624.804685
 11
12058.098654
 21
-2621.340584
  0
LINE
  8
001
 10
12035.636362
 20
-2590.744287
 11
12016.136362
 21
-2618.760756
  0
LINE
  8
001
 10
12040.560946
 20
-2590.744287
 11
12060.060946
 21
-2618.760756
  0
LINE
  8
001
 10
12037.27789
 20
-2591.886822
 11
12017.77789
 21
-2619.903291
  0
LINE
  8
001
 10
12038.919418
 20
-2591.886822
 11
12058.419418
 21
-2619.903291
  0
LINE
  8
001
 10
12080.598654
 20
-2667.325411
 11
12080.598654
 21
-2665.325411
  0
LINE
  8
001
 10
11995.598654
 20
-2667.325411
 11
11995.598654
 21
-2665.325411
  0
ARC
  8
001
 10
12053.598654
 20
-2664.325411
 40
1.0
 50
180.0
 51
270.0
  0
ARC
  8
001
 10
12022.598654
 20
-2664.325411
 40
1.0
 50
270.0
 51
0.0
  0
ARC
  8
001
 10
12022.598654
 20
-2664.325411
 40
3.0
 50
270.0
 51
0.0
  0
ARC
  8
001
 10
12053.598654
 20
-2664.325411
 40
3.0
 50
180.0
 51
270.0
  0
LINE
  8
001
 10
11988.098654
 20
-2665.325411
 11
12022.598654
 21
-2665.325411
  0
LINE
  8
001
 10
12025.427081
 20
-2665.325411
 11
12050.770227
 21
-2665.325411
  0
LINE
  8
001
 10
12053.598654
 20
-2665.325411
 11
12088.098654
 21
-2665.325411
  0
LINE
  8
001
 10
12080.598654
 20
-2667.325411
 11
12053.598654
 21
-2667.325411
  0
LINE
  8
001
 10
12022.598654
 20
-2667.325411
 11
11995.598654
 21
-2667.325411
  0
LINE
  8
001
 10
12023.598654
 20
-2664.325411
 11
12023.598654
 21
-2627.402761
  0
LINE
  8
001
 10
12025.598654
 20
-2664.325411
 11
12025.598654
 21
-2627.402761
  0
LINE
  8
001
 10
12050.598654
 20
-2664.325411
 11
12050.598654
 21
-2627.402761
  0
LINE
  8
001
 10
12052.598654
 20
-2664.325411
 11
12052.598654
 21
-2627.402761
  0
ARC
  8
001
 10
12038.098654
 20
-2592.458089
 40
1.0
 50
34.838658
 51
145.161342
  0
ARC
  8
001
 10
12038.098654
 20
-2592.458089
 40
3.0
 50
34.838658
 51
145.161342
  0
ARC
  8
001
 10
12018.598654
 20
-2620.474558
 40
1.0
 50
145.161342
 51
240.0
  0
ARC
  8
001
 10
12018.598654
 20
-2620.474558
 40
3.0
 50
145.161342
 51
240.0
  0
ARC
  8
001
 10
12057.598654
 20
-2620.474558
 40
1.0
 50
300.0
 51
34.838658
  0
ARC
  8
001
 10
12057.598654
 20
-2620.474558
 40
3.0
 50
300.0
 51
34.838658
  0
ARC
  8
001
 10
12053.598654
 20
-2627.402761
 40
1.0
 50
120.0
 51
180.0
  0
ARC
  8
001
 10
12053.598654
 20
-2627.402761
 40
3.0
 50
120.0
 51
180.0
  0
ARC
  8
001
 10
12022.598654
 20
-2627.402761
 40
1.0
 50
0.0
 51
60.0
  0
ARC
  8
001
 10
12022.598654
 20
-2627.402761
 40
3.0
 50
0.0
 51
60.0
  0
LINE
  8
001
 10
12014.348654
 20
-2622.495284
 11
12016.381298
 21
-2622.495284
  0
LINE
  8
001
 10
12061.848654
 20
-2622.495284
 11
12059.81601
 21
-2622.495284
  0
LINE
  8
001
 10
12054.348654
 20
-2626.825411
 11
12052.782157
 21
-2626.825411
  0
LINE
  8
001
 10
12023.41515
 20
-2626.825411
 11
12021.848654
 21
-2626.825411
  0
LINE
  8
001
 10
12083.098654
 20
-2655.325411
 11
12052.598654
 21
-2655.325411
  0
LINE
  8
001
 10
12050.598654
 20
-2655.325411
 11
12025.598654
 21
-2655.325411
  0
LINE
  8
001
 10
12023.598654
 20
-2655.325411
 11
11993.098654
 21
-2655.325411
  0
LINE
  8
001
 10
12436.273517
 20
-2564.892127
 11
12346.273517
 21
-2564.892127
  0
LINE
  8
001
 10
12341.273517
 20
-2649.892127
 11
12341.273517
 21
-2569.892127
  0
LINE
  8
001
 10
12441.273517
 20
-2569.892127
 11
12441.273517
 21
-2649.892127
  0
ARC
  8
001
 10
12346.273517
 20
-2569.892127
 40
5.0
 50
90.0
 51
180.0
  0
ARC
  8
001
 10
12346.273517
 20
-2649.892127
 40
5.0
 50
180.0
 51
270.0
  0
ARC
  8
001
 10
12436.273517
 20
-2649.892127
 40
5.0
 50
270.0
 51
0.0
  0
ARC
  8
001
 10
12436.273517
 20
-2569.892127
 40
5.0
 50
0.0
 51
90.0
  0
LINE
  8
001
 10
12426.273517
 20
-2634.892127
 11
12346.273517
 21
-2634.892127
  0
ARC
  8
001
 10
12346.273517
 20
-2639.892127
 40
5.0
 50
90.0
 51
180.0
  0
LINE
  8
001
 10
12441.273517
 20
-2654.892127
 11
12436.273517
 21
-2654.892127
  0
LINE
  8
001
 10
12341.273517
 20
-2654.892127
 11
12346.273517
 21
-2654.892127
  0
LINE
  8
001
 10
12341.273517
 20
-2654.892127
 11
12341.273517
 21
-2664.892127
  0
LINE
  8
001
 10
12441.273517
 20
-2664.892127
 11
12441.273517
 21
-2654.892127
  0
LINE
  8
001
 10
12341.273517
 20
-2654.892127
 11
12341.273517
 21
-2649.892127
  0
LINE
  8
001
 10
12441.273517
 20
-2654.892127
 11
12441.273517
 21
-2649.892127
  0
LINE
  8
001
 10
12401.273517
 20
-2679.892127
 11
12381.273517
 21
-2679.892127
  0
LINE
  8
001
 10
12406.273517
 20
-2656.392127
 11
12406.273517
 21
-2674.892127
  0
LINE
  8
001
 10
12376.273517
 20
-2656.392127
 11
12376.273517
 21
-2674.892127
  0
ARC
  8
001
 10
12381.273517
 20
-2674.892127
 40
5.0
 50
180.0
 51
270.0
  0
ARC
  8
001
 10
12401.273517
 20
-2674.892127
 40
5.0
 50
270.0
 51
0.0
  0
LINE
  8
001
 10
12407.773517
 20
-2654.892127
 11
12436.273517
 21
-2654.892127
  0
LINE
  8
001
 10
12374.773517
 20
-2654.892127
 11
12346.273517
 21
-2654.892127
  0
ARC
  8
001
 10
12374.773517
 20
-2656.392127
 40
1.5
 50
0.0
 51
90.0
  0
ARC
  8
001
 10
12407.773517
 20
-2656.392127
 40
1.5
 50
90.0
 51
180.0
  0
LINE
  8
001
 10
12426.273517
 20
-2634.892127
 11
12426.273517
 21
-2564.892127
  0
LINE
  8
001
 10
12341.273517
 20
-2664.892127
 11
12376.273517
 21
-2664.892127
  0
LINE
  8
001
 10
12406.273517
 20
-2664.892127
 11
12441.273517
 21
-2664.892127
  0
LINE
  8
001
 10
12375.023517
 20
-2664.892127
 11
12375.023517
 21
-2654.913107
  0
LINE
  8
001
 10
12407.523517
 20
-2664.892127
 11
12407.523517
 21
-2654.913107
  0
TEXT
  8
001
 10
12405.045016
 20
-3352.645584
 40
20.0
  1
SEC A-A
 41
1.09375
  0
TEXT
  8
001
 10
11918.187891
 20
-2765.870399
 40
20.0
  1
SEC B-B(S=1/1)
 41
1.160221
  0
TEXT
  8
001
 10
12253.127341
 20
-2765.870399
 40
20.0
  1
SEC C-C(S=1/1)
 41
1.160221
  0
LINE
  8
001
 10
11918.187891
 20
-2765.870399
 11
12198.187891
 21
-2765.870399
  0
LINE
  8
001
 10
12253.127341
 20
-2765.870399
 11
12533.127341
 21
-2765.870399
  0
LINE
  8
001
 10
12405.045016
 20
-3352.645584
 11
12545.045016
 21
-3352.645584
  0
LINE
  8
001
 10
11945.532244
 20
-3282.009424
 11
11941.532244
 21
-3282.009424
  0
LINE
  8
001
 10
12090.532244
 20
-3281.009424
 11
12090.532244
 21
-3279.009424
  0
LINE
  8
001
 10
12096.532244
 20
-3281.009424
 11
12096.532244
 21
-3279.009424
  0
LINE
  8
001
 10
11940.532244
 20
-3281.009424
 11
11940.532244
 21
-3279.009424
  0
LINE
  8
001
 10
11946.532244
 20
-3281.009424
 11
11946.532244
 21
-3279.009424
  0
ARC
  8
001
 10
11941.532244
 20
-3281.009424
 40
1.0
 50
180.0
 51
270.0
  0
ARC
  8
001
 10
11945.532244
 20
-3281.009424
 40
1.0
 50
270.0
 51
0.0
  0
LINE
  8
001
 10
12095.532244
 20
-3282.009424
 11
12091.532244
 21
-3282.009424
  0
ARC
  8
001
 10
12091.532244
 20
-3281.009424
 40
1.0
 50
180.0
 51
270.0
  0
ARC
  8
001
 10
12095.532244
 20
-3281.009424
 40
1.0
 50
270.0
 51
0.0
  0
LINE
  8
001
 62
     4
 10
12018.532244
 20
-3249.437428
 11
12032.507514
 21
-3249.437428
  0
LINE
  8
001
 62
     4
 10
12018.532244
 20
-3295.05175
 11
12031.855881
 21
-3295.05175
  0
LINE
  8
001
 62
     4
 10
12093.532244
 20
-3296.192108
 11
12106.467879
 21
-3296.192108
  0
LINE
  8
001
 62
     4
 10
12093.532244
 20
-3247.64544
 11
12105.816245
 21
-3247.64544
  0
LINE
  8
001
 10
12105.816245
 20
-3247.64544
 11
12100.079949
 21
-3244.333588
  0
LINE
  8
001
 10
12032.507514
 20
-3249.437428
 11
12026.54509
 21
-3245.995021
  0
LINE
  8
001
 10
12031.855881
 20
-3295.05175
 11
12024.995328
 21
-3299.012692
  0
LINE
  8
001
 10
12106.467879
 20
-3296.192108
 11
12098.954909
 21
-3300.529723
  0
LINE
  8
001
 10
12098.954909
 20
-3300.529723
 11
12098.954909
 21
-3292.037956
  0
LINE
  8
001
 10
12100.079949
 20
-3244.333588
 11
12100.079949
 21
-3250.00761
  0
LINE
  8
001
 10
12024.995328
 20
-3299.012692
 11
12024.995328
 21
-3292.200858
  0
LINE
  8
001
 10
12026.54509
 20
-3245.995021
 11
12026.54509
 21
-3251.96251
  0
TEXT
  8
001
 10
12024.280716
 20
-3242.676733
 40
20.0
  1
B
  0
TEXT
  8
001
 10
12024.280716
 20
-3322.501797
 40
20.0
  1
B
  0
TEXT
  8
001
 10
12094.982915
 20
-3240.070201
 40
20.0
  1
C
  0
TEXT
  8
001
 10
12096.937814
 20
-3324.456696
 40
20.0
  1
C
  0
LINE
  8
001
 10
12018.324535
 20
-2655.325411
 11
12021.848654
 21
-2651.801292
  0
LINE
  8
001
 10
12011.253467
 20
-2655.325411
 11
12021.848654
 21
-2644.730224
  0
LINE
  8
001
 10
12004.182399
 20
-2655.325411
 11
12021.848654
 21
-2637.659157
  0
LINE
  8
001
 10
11997.111331
 20
-2655.325411
 11
12021.848654
 21
-2630.588089
  0
LINE
  8
001
 10
11990.669821
 20
-2654.695854
 11
12019.751218
 21
-2625.614456
  0
LINE
  8
001
 10
11988.098654
 20
-2650.195953
 11
12015.268341
 21
-2623.026266
  0
LINE
  8
001
 10
11988.098654
 20
-2643.124885
 11
11995.898128
 21
-2635.325411
  0
LINE
  8
001
 10
12004.348654
 20
-2626.874885
 11
12014.348654
 21
-2616.874885
  0
LINE
  8
001
 10
12004.348654
 20
-2619.803817
 11
12014.348654
 21
-2609.803817
  0
LINE
  8
001
 10
12004.348654
 20
-2612.73275
 11
12014.348654
 21
-2602.73275
  0
LINE
  8
001
 10
12004.348654
 20
-2605.661682
 11
12014.348654
 21
-2595.661682
  0
LINE
  8
001
 10
12004.348654
 20
-2598.590614
 11
12014.348654
 21
-2588.590614
  0
LINE
  8
001
 10
12004.348654
 20
-2591.519546
 11
12014.348654
 21
-2581.519546
  0
LINE
  8
001
 10
12004.348654
 20
-2584.448478
 11
12014.348654
 21
-2574.448478
  0
LINE
  8
001
 10
12004.348654
 20
-2577.377411
 11
12014.348654
 21
-2567.377411
  0
LINE
  8
001
 10
12004.34869
 20
-2570.306306
 11
12009.329549
 21
-2565.325448
  0
LINE
  8
001
 10
12081.964145
 20
-2655.325411
 11
12088.098654
 21
-2649.190902
  0
LINE
  8
001
 10
12074.893077
 20
-2655.325411
 11
12088.098654
 21
-2642.119835
  0
LINE
  8
001
 10
12067.822009
 20
-2655.325411
 11
12088.098654
 21
-2635.048767
  0
LINE
  8
001
 10
12060.750942
 20
-2655.325411
 11
12088.098654
 21
-2627.977699
  0
LINE
  8
001
 10
12054.348654
 20
-2654.656631
 11
12088.098654
 21
-2620.906631
  0
LINE
  8
001
 10
12054.348654
 20
-2647.585563
 11
12088.098654
 21
-2613.835563
  0
LINE
  8
001
 10
12054.348654
 20
-2640.514496
 11
12088.098654
 21
-2606.764496
  0
LINE
  8
001
 10
12054.348654
 20
-2633.443428
 11
12088.098654
 21
-2599.693428
  0
LINE
  8
001
 10
12061.848654
 20
-2618.87236
 11
12088.098654
 21
-2592.62236
  0
LINE
  8
001
 10
12061.848654
 20
-2611.801292
 11
12088.098654
 21
-2585.551292
  0
LINE
  8
001
 10
12061.848654
 20
-2604.730224
 11
12088.098654
 21
-2578.480224
  0
LINE
  8
001
 10
12061.848654
 20
-2597.659157
 11
12088.098654
 21
-2571.409157
  0
LINE
  8
001
 10
12061.848654
 20
-2590.588089
 11
12086.105892
 21
-2566.33085
  0
LINE
  8
001
 10
12061.848654
 20
-2583.517021
 11
12080.040264
 21
-2565.325411
  0
LINE
  8
001
 10
12061.848654
 20
-2576.445953
 11
12072.969196
 21
-2565.325411
  0
LINE
  8
001
 10
12061.848654
 20
-2569.374885
 11
12065.898128
 21
-2565.325411
  0
LINE
  8
001
 10
12435.95082
 20
-2654.892127
 11
12441.273517
 21
-2649.56943
  0
LINE
  8
001
 10
12428.879752
 20
-2654.892127
 11
12441.273517
 21
-2642.498362
  0
LINE
  8
001
 10
12396.808684
 20
-2679.892127
 11
12406.273517
 21
-2670.427295
  0
LINE
  8
001
 10
12421.808684
 20
-2654.892127
 11
12441.273517
 21
-2635.427295
  0
LINE
  8
001
 10
12389.737616
 20
-2679.892127
 11
12406.273517
 21
-2663.356227
  0
LINE
  8
001
 10
12414.737616
 20
-2654.892127
 11
12441.273517
 21
-2628.356227
  0
LINE
  8
001
 10
12382.666549
 20
-2679.892127
 11
12406.277636
 21
-2656.28104
  0
LINE
  8
001
 10
12407.662429
 20
-2654.896246
 11
12441.273517
 21
-2621.285159
  0
LINE
  8
001
 10
12377.415256
 20
-2678.072351
 11
12420.595481
 21
-2634.892127
  0
LINE
  8
001
 10
12426.273517
 20
-2629.214091
 11
12441.273517
 21
-2614.214091
  0
LINE
  8
001
 10
12376.273517
 20
-2672.143023
 11
12413.524413
 21
-2634.892127
  0
LINE
  8
001
 10
12426.273517
 20
-2622.143023
 11
12441.273517
 21
-2607.143023
  0
LINE
  8
001
 10
12376.273517
 20
-2665.071955
 11
12406.453345
 21
-2634.892127
  0
LINE
  8
001
 10
12426.273517
 20
-2615.071955
 11
12441.273517
 21
-2600.071955
  0
LINE
  8
001
 10
12376.273517
 20
-2658.000888
 11
12399.382277
 21
-2634.892127
  0
LINE
  8
001
 10
12426.273517
 20
-2608.000888
 11
12441.273517
 21
-2593.000888
  0
LINE
  8
001
 10
12372.31121
 20
-2654.892127
 11
12392.31121
 21
-2634.892127
  0
LINE
  8
001
 10
12426.273517
 20
-2600.92982
 11
12441.273517
 21
-2585.92982
  0
LINE
  8
001
 10
12365.240142
 20
-2654.892127
 11
12385.240142
 21
-2634.892127
  0
LINE
  8
001
 10
12426.273517
 20
-2593.858752
 11
12441.273517
 21
-2578.858752
  0
LINE
  8
001
 10
12358.169074
 20
-2654.892127
 11
12378.169074
 21
-2634.892127
  0
LINE
  8
001
 10
12426.273517
 20
-2586.787684
 11
12441.273517
 21
-2571.787684
  0
LINE
  8
001
 10
12351.098006
 20
-2654.892127
 11
12371.098006
 21
-2634.892127
  0
LINE
  8
001
 10
12426.273517
 20
-2579.716616
 11
12439.720206
 21
-2566.269927
  0
LINE
  8
001
 10
12344.393747
 20
-2654.525319
 11
12364.026938
 21
-2634.892127
  0
LINE
  8
001
 10
12426.273517
 20
-2572.645549
 11
12434.026938
 21
-2564.892127
  0
LINE
  8
001
 10
12341.314786
 20
-2650.533212
 11
12356.95587
 21
-2634.892127
  0
LINE
  8
001
 10
12426.273517
 20
-2565.574481
 11
12426.95587
 21
-2564.892127
  0
LINE
  8
001
 10
12341.273517
 20
-2643.503413
 11
12349.884803
 21
-2634.892127
  0
LINE
  8
001
 10
11882.495783
 20
-3640.901398
 11
12442.4958
 21
-3640.901398
  0
TEXT
  8
001
 10
11882.495783
 20
-3640.901398
 40
20.0
  1
※図番ＳＡ２－０００６３を廃図とし本図と差し替えとする。
 41
0.833333
  0
LINE
  8
001
 62
     9
 10
11876.99895
 20
-3879.757397
 11
12816.99895
 21
-3879.757397
  0
LINE
  8
001
 62
     9
 10
11876.99895
 20
-3844.757397
 11
12816.99895
 21
-3844.757397
  0
LINE
  8
001
 62
     9
 10
11876.99895
 20
-3809.757397
 11
12816.99895
 21
-3809.757397
  0
LINE
  8
001
 62
     9
 10
11876.99895
 20
-3774.757397
 11
12816.99895
 21
-3774.757397
  0
LINE
  8
001
 62
     9
 10
11876.99895
 20
-3739.757397
 11
12816.99895
 21
-3739.757397
  0
TEXT
  8
001
 10
11889.49895
 20
-3942.257397
 40
20.0
  1
1
 41
1.499999
  0
TEXT
  8
001
 10
11889.49895
 20
-3907.257372
 40
20.0
  1
2
  0
TEXT
  8
001
 10
11889.49895
 20
-3872.257412
 40
20.0
  1
3
  0
TEXT
  8
001
 10
11889.49895
 20
-3837.257407
 40
20.0
  1
4
  0
TEXT
  8
001
 10
11889.49895
 20
-3802.257427
 40
20.0
  1
5
  0
TEXT
  8
001
 10
11889.49895
 20
-3767.257422
 40
20.0
  1
6
  0
TEXT
  8
001
 10
11926.99905
 20
-3942.257397
 40
20.0
  1
パイプ受枠（Ａ）
 41
0.833333
  0
TEXT
  8
001
 10
11926.99905
 20
-3907.257372
 40
20.0
  1
フレ－ム（１段用）
 41
0.833333
  0
TEXT
  8
001
 10
11926.99905
 20
-3872.257412
 40
20.0
  1
中間押え（Ａ）
 41
0.833333
  0
TEXT
  8
001
 10
11926.99905
 20
-3837.257407
 40
20.0
  1
パイプ
 41
0.833333
  0
TEXT
  8
001
 10
11926.99905
 20
-3802.257427
 40
20.0
  1
スプリング
 41
0.833333
  0
TEXT
  8
001
 10
11926.99905
 20
-3767.257422
 40
20.0
  1
ＨＳ－くぼみ先
 41
0.833333
  0
TEXT
  8
001
 10
12116.99895
 20
-3942.257397
 40
20.0
  1
A.B.S.
 41
1.5
  0
TEXT
  8
001
 10
12116.99895
 20
-3907.257372
 40
20.0
  1
SUS430 t2.0
 41
1.170213
  0
TEXT
  8
001
 10
12116.99895
 20
-3872.257412
 40
20.0
  1
A.B.S.
 41
1.5
  0
TEXT
  8
001
 10
12116.99895
 20
-3837.257407
 40
20.0
  1
SUS304 %%c10
 41
1.145038
  0
TEXT
  8
001
 10
12116.99895
 20
-3802.257427
 40
20.0
  1
SUS302 t0.4
 41
1.170213
  0
TEXT
  8
001
 10
12116.99895
 20
-3767.257422
 40
20.0
  1
M5*L5
  0
TEXT
  8
001
 10
12344.49895
 20
-3942.257397
 40
20.0
  1
2
  0
TEXT
  8
001
 10
12344.49895
 20
-3907.257372
 40
20.0
  1
2
  0
TEXT
  8
001
 10
12335.961188
 20
-3872.434861
 40
20.0
  1
1(0)
 41
0.77647
  0
TEXT
  8
001
 10
12344.49895
 20
-3837.257407
 40
20.0
  1
6
  0
TEXT
  8
001
 10
12344.49895
 20
-3802.257427
 40
20.0
  1
2
  0
TEXT
  8
001
 10
12344.49895
 20
-3767.257422
 40
20.0
  1
4
  0
TEXT
  8
001
 10
11929.498675
 20
-4099.597239
 40
20.0
  1
-
 50
360.000001
 51
1.570796
  7
TATEGAKI
  0
TEXT
  8
001
 10
11919.171752
 20
-4132.941299
 40
20.0
  1
5
  0
TEXT
  8
001
 10
11919.171904
 20
-4106.007495
 40
20.0
  1
1
 41
1.499999
  0
TEXT
  8
001
 10
12066.99895
 20
-4103.507397
 40
20.0
  1
赤坂
 41
0.833333
  0
TEXT
  8
001
 10
11986.99895
 20
-4103.507397
 40
20.0
  1
赤坂
 41
0.833333
  0
POLYLINE
  8
001
 62
     4
 66
     1
  0
VERTEX
  8
001
 62
     4
 10
12101.99895
 20
-2267.257397
  0
VERTEX
  8
001
 62
     4
 10
12126.99895
 20
-2267.257397
  0
VERTEX
  8
001
 62
     4
 10
12114.49895
 20
-2245.606762
  0
VERTEX
  8
001
 62
     4
 10
12101.99895
 20
-2267.257397
  0
SEQEND
  8
001
  0
TEXT
  8
001
 62
     4
 10
12109.49895
 20
-2265.040518
 40
10.0
  1
1
 41
1.499999
  0
LINE
  8
001
 62
     9
 10
12816.99895
 20
-2379.757397
 11
12091.99895
 21
-2379.757397
  0
LINE
  8
001
 62
     9
 10
12136.99895
 20
-2204.757397
 11
12136.99895
 21
-2449.757397
  0
LINE
  8
001
 62
     9
 10
12091.99895
 20
-2449.757397
 11
12091.99895
 21
-2204.757397
  0
LINE
  8
001
 62
     9
 10
12221.99895
 20
-2204.757397
 11
12221.99895
 21
-2449.757397
  0
LINE
  8
001
 62
     9
 10
12771.99895
 20
-2449.757397
 11
12771.99895
 21
-2204.757397
  0
LINE
  8
001
 62
     9
 10
12726.99895
 20
-2449.757397
 11
12726.99895
 21
-2204.757397
  0
POLYLINE
  8
001
 62
     4
 66
     1
  0
VERTEX
  8
001
 62
     4
 10
12101.99895
 20
-2302.257397
  0
VERTEX
  8
001
 62
     4
 10
12126.99895
 20
-2302.257397
  0
VERTEX
  8
001
 62
     4
 10
12114.49895
 20
-2280.606762
  0
VERTEX
  8
001
 62
     4
 10
12101.99895
 20
-2302.257397
  0
SEQEND
  8
001
  0
POLYLINE
  8
001
 62
     4
 66
     1
  0
VERTEX
  8
001
 62
     4
 10
12101.99895
 20
-2337.257397
  0
VERTEX
  8
001
 62
     4
 10
12126.99895
 20
-2337.257397
  0
VERTEX
  8
001
 62
     4
 10
12114.49895
 20
-2315.606762
  0
VERTEX
  8
001
 62
     4
 10
12101.99895
 20
-2337.257397
  0
SEQEND
  8
001
  0
POLYLINE
  8
001
 62
     4
 66
     1
  0
VERTEX
  8
001
 62
     4
 10
12101.99895
 20
-2372.257397
  0
VERTEX
  8
001
 62
     4
 10
12126.99895
 20
-2372.257397
  0
VERTEX
  8
001
 62
     4
 10
12114.49895
 20
-2350.606762
  0
VERTEX
  8
001
 62
     4
 10
12101.99895
 20
-2372.257397
  0
SEQEND
  8
001
  0
TEXT
  8
001
 62
     4
 10
12109.49895
 20
-2300.040518
 40
10.0
  1
2
  0
TEXT
  8
001
 62
     4
 10
12109.49895
 20
-2335.040518
 40
10.0
  1
3
  0
TEXT
  8
001
 62
     4
 10
12109.49895
 20
-2370.040518
 40
10.0
  1
4
  0
TEXT
  8
001
 10
12141.99895
 20
-2267.257397
 40
20.0
  1
H11.5.10
 41
0.654545
  0
TEXT
  8
001
 10
12226.99895
 20
-2267.257397
 40
20.0
  1
新機種追加
 41
0.833333
  0
TEXT
  8
001
 10
12141.99895
 20
-2302.257397
 40
20.0
  1
H12.8.21
 41
0.6
  0
TEXT
  8
001
 10
12141.99895
 20
-2337.257397
 40
20.0
  1
H14.11.14
 41
0.568421
  0
TEXT
  8
001
 10
12141.99895
 20
-2372.257397
 40
20.0
  1
H17.6.3
 41
0.525
  0
TEXT
  8
001
 10
12226.99895
 20
-2302.257397
 40
20.0
  1
新機種追加
 41
0.833333
  0
TEXT
  8
001
 10
12226.99895
 20
-2337.257397
 40
20.0
  1
新機種追加
 41
0.833333
  0
TEXT
  8
001
 10
12226.99895
 20
-2372.257397
 40
20.0
  1
新機種追加
 41
0.833333
  0
TEXT
  8
001
 10
12729.49895
 20
-2267.257397
 40
20.0
  1
赤坂
 41
0.833333
  0
TEXT
  8
001
 10
12729.49895
 20
-2302.257397
 40
20.0
  1
吉村
 41
0.833333
  0
TEXT
  8
001
 10
12729.49895
 20
-2337.257397
 40
20.0
  1
吉村
 41
0.833333
  0
TEXT
  8
001
 10
12729.49895
 20
-2372.257397
 40
20.0
  1
吉村
 41
0.833333
  0
TEXT
  8
001
 10
12774.49895
 20
-2302.257397
 40
20.0
  1
寺野
 41
0.833333
  0
TEXT
  8
001
 10
12774.49895
 20
-2337.257397
 40
20.0
  1
寺野
 41
0.833333
  0
LINE
  8
001
 62
     4
 10
10320.149782
 20
-3284.009424
 11
10320.149782
 21
-3387.267188
  0
POLYLINE
  8
001
 62
     4
 66
     1
  0
VERTEX
  8
001
 62
     4
 10
10330.149782
 20
-3379.587697
  0
VERTEX
  8
001
 62
     4
 10
10320.149782
 20
-3382.267188
  0
VERTEX
  8
001
 62
     4
 10
10330.149782
 20
-3384.94668
  0
SEQEND
  8
001
  0
LINE
  8
001
 62
     4
 10
10320.149782
 20
-3382.267188
 11
11560.149782
 21
-3382.267188
  0
POLYLINE
  8
001
 62
     4
 66
     1
  0
VERTEX
  8
001
 62
     4
 10
11550.149782
 20
-3384.94668
  0
VERTEX
  8
001
 62
     4
 10
11560.149782
 20
-3382.267188
  0
VERTEX
  8
001
 62
     4
 10
11550.149782
 20
-3379.587697
  0
SEQEND
  8
001
  0
LINE
  8
001
 62
     4
 10
11560.149782
 20
-3284.009424
 11
11560.149782
 21
-3387.267188
  0
TEXT
  8
001
 62
     4
 10
10590.149782
 20
-3381.267188
 40
20.0
  1
５５０、８００、１０００、６００、７５０、９００、１２００、１０５０
 41
0.833333
  0
TEXT
  8
001
 62
     4
 10
11280.149782
 20
-3371.267188
 40
10.0
  1
0
 41
1.2
  0
TEXT
  8
001
 62
     4
 10
11270.149782
 20
-3381.767188
 40
10.0
  1
-2
  0
POLYLINE
  8
001
 62
     4
 66
     1
  0
VERTEX
  8
001
 62
     4
 10
11197.574184
 20
-3355.514986
  0
VERTEX
  8
001
 62
     4
 10
11222.574184
 20
-3355.514986
  0
VERTEX
  8
001
 62
     4
 10
11210.074184
 20
-3333.864351
  0
VERTEX
  8
001
 62
     4
 10
11197.574184
 20
-3355.514986
  0
SEQEND
  8
001
  0
TEXT
  8
001
 62
     4
 10
11205.074184
 20
-3353.298107
 40
10.0
  1
1
 41
1.499999
  0
POLYLINE
  8
001
 62
     4
 66
     1
  0
VERTEX
  8
001
 62
     4
 10
10595.790469
 20
-3355.514986
  0
VERTEX
  8
001
 62
     4
 10
10620.790469
 20
-3355.514986
  0
VERTEX
  8
001
 62
     4
 10
10608.290469
 20
-3333.864351
  0
VERTEX
  8
001
 62
     4
 10
10595.790469
 20
-3355.514986
  0
SEQEND
  8
001
  0
TEXT
  8
001
 62
     4
 10
10603.290469
 20
-3353.298107
 40
10.0
  1
5
  0
LINE
  8
001
 10
10947.649782
 20
-3272.009424
 11
11540.149782
 21
-3272.009424
  0
LINE
  8
001
 10
10932.649782
 20
-3272.009424
 11
10947.649782
 21
-3272.009424
  0
LINE
  8
001
 10
10932.649782
 20
-3272.009424
 11
10340.149782
 21
-3272.009424
  0
LINE
  8
001
 62
     9
 10
12816.99895
 20
-2414.757397
 11
12091.99895
 21
-2414.757397
  0
TEXT
  8
001
 10
12774.49895
 20
-2372.257397
 40
20.0
  1
寺野
 41
0.833333
  0
POLYLINE
  8
001
 62
     4
 66
     1
  0
VERTEX
  8
001
 62
     4
 10
11204.225825
 20
-3814.322446
  0
VERTEX
  8
001
 62
     4
 10
11229.225825
 20
-3814.322446
  0
VERTEX
  8
001
 62
     4
 10
11216.725825
 20
-3792.671811
  0
VERTEX
  8
001
 62
     4
 10
11204.225825
 20
-3814.322446
  0
SEQEND
  8
001
  0
TEXT
  8
001
 62
     4
 10
11211.725825
 20
-3812.105567
 40
10.0
  1
5
  0
TEXT
  8
001
 10
12226.99895
 20
-2407.257397
 40
20.0
  1
新機種追加
 41
0.833333
  0
POLYLINE
  8
001
 62
     4
 66
     1
  0
VERTEX
  8
001
 62
     4
 10
12101.99895
 20
-2407.257397
  0
VERTEX
  8
001
 62
     4
 10
12126.99895
 20
-2407.257397
  0
VERTEX
  8
001
 62
     4
 10
12114.49895
 20
-2385.606762
  0
VERTEX
  8
001
 62
     4
 10
12101.99895
 20
-2407.257397
  0
SEQEND
  8
001
  0
TEXT
  8
001
 10
12729.49895
 20
-2407.257397
 40
20.0
  1
吉村
 41
0.833333
  0
TEXT
  8
001
 62
     4
 10
12109.49895
 20
-2405.040518
 40
10.0
  1
5
  0
TEXT
  8
001
 10
12141.99895
 20
-2407.257397
 40
20.0
  1
H22.6.1
 41
0.525
  0
TEXT
  8
001
 62
     4
 10
10510.149782
 20
-3381.267188
 40
20.0
  1
５７０、
 41
0.833333
  0
POLYLINE
  8
001
 62
     4
 66
     1
  0
VERTEX
  8
001
 62
     4
 10
10515.790469
 20
-3355.514986
  0
VERTEX
  8
001
 62
     4
 10
10540.790469
 20
-3355.514986
  0
VERTEX
  8
001
 62
     4
 10
10528.290469
 20
-3333.864351
  0
VERTEX
  8
001
 62
     4
 10
10515.790469
 20
-3355.514986
  0
SEQEND
  8
001
  0
TEXT
  8
001
 62
     4
 10
10523.290469
 20
-3353.298107
 40
10.0
  1
6
  0
POLYLINE
  8
001
 62
     4
 66
     1
  0
VERTEX
  8
001
 62
     4
 10
11320.72075
 20
-3814.322446
  0
VERTEX
  8
001
 62
     4
 10
11345.72075
 20
-3814.322446
  0
VERTEX
  8
001
 62
     4
 10
11333.22075
 20
-3792.671811
  0
VERTEX
  8
001
 62
     4
 10
11320.72075
 20
-3814.322446
  0
SEQEND
  8
001
  0
TEXT
  8
001
 62
     4
 10
11328.22075
 20
-3812.105567
 40
10.0
  1
6
  0
TEXT
  8
001
 10
12774.49895
 20
-2407.257397
 40
20.0
  1
寺野
 41
0.833333
  0
LINE
  8
001
 62
     9
 10
12816.99895
 20
-2449.757397
 11
12091.99895
 21
-2449.757397
  0
TEXT
  8
001
 10
12226.99895
 20
-2442.257397
 40
20.0
  1
新機種追加
 41
0.833333
  0
POLYLINE
  8
001
 62
     4
 66
     1
  0
VERTEX
  8
001
 62
     4
 10
12101.99895
 20
-2442.257397
  0
VERTEX
  8
001
 62
     4
 10
12126.99895
 20
-2442.257397
  0
VERTEX
  8
001
 62
     4
 10
12114.49895
 20
-2420.606762
  0
VERTEX
  8
001
 62
     4
 10
12101.99895
 20
-2442.257397
  0
SEQEND
  8
001
  0
TEXT
  8
001
 10
12729.49895
 20
-2442.257397
 40
20.0
  1
吉村
 41
0.833333
  0
TEXT
  8
001
 62
     4
 10
12109.49895
 20
-2440.040518
 40
10.0
  1
6
  0
TEXT
  8
001
 10
12471.99895
 20
-4097.882397
 40
20.0
  1
OA
  0
TEXT
  8
001
 10
12511.99895
 20
-4097.882397
 40
10.0
  1
2
  0
TEXT
  8
001
 10
12521.99895
 20
-4097.882397
 40
20.0
  1
-00944F
 41
1.05
  0
POLYLINE
  8
001
 62
     4
 66
     1
  0
VERTEX
  8
001
 62
     4
 10
11567.431225
 20
-3233.851213
  0
VERTEX
  8
001
 62
     4
 10
11560.149782
 20
-3241.210579
  0
VERTEX
  8
001
 62
     4
 10
11570.13538
 20
-3238.477903
  0
SEQEND
  8
001
  0
LINE
  8
001
 62
     4
 10
11560.149782
 20
-3241.210579
 11
11613.265338
 21
-3210.166209
  0
CIRCLE
  8
001
 62
     4
 10
11634.849139
 20
-3197.551157
 40
25.0
  0
TEXT
  8
001
 62
     4
 10
11619.849139
 20
-3212.551157
 40
30.0
  1
2
  0
POLYLINE
  8
001
 62
     4
 66
     1
  0
VERTEX
  8
001
 62
     4
 10
11120.161522
 20
-2737.28121
  0
VERTEX
  8
001
 62
     4
 10
11112.564262
 20
-2730.248336
  0
VERTEX
  8
001
 62
     4
 10
11115.627245
 20
-2740.137613
  0
SEQEND
  8
001
  0
LINE
  8
001
 62
     4
 10
11112.564262
 20
-2730.248336
 11
11139.314398
 21
-2772.711705
  0
CIRCLE
  8
001
 62
     4
 10
11152.639702
 20
-2793.864394
 40
25.0
  0
TEXT
  8
001
 62
     4
 10
11137.639702
 20
-2808.864394
 40
30.0
  1
4
  0
POLYLINE
  8
001
 62
     4
 66
     1
  0
VERTEX
  8
001
 62
     4
 10
11559.437169
 20
-3725.313289
  0
VERTEX
  8
001
 62
     4
 10
11552.086865
 20
-3732.603878
  0
VERTEX
  8
001
 62
     4
 10
11562.09771
 20
-3729.965195
  0
SEQEND
  8
001
  0
LINE
  8
001
 62
     4
 10
11552.086865
 20
-3732.603878
 11
11576.957557
 21
-3718.379712
  0
CIRCLE
  8
001
 62
     4
 10
11598.658995
 20
-3705.968121
 40
25.0
  0
TEXT
  8
001
 62
     4
 10
11583.658995
 20
-3720.968121
 40
30.0
  1
6
  0
POLYLINE
  8
001
 62
     4
 66
     1
  0
VERTEX
  8
001
 62
     4
 10
12383.940628
 20
-3253.67348
  0
VERTEX
  8
001
 62
     4
 10
12382.24171
 20
-3263.885891
  0
VERTEX
  8
001
 62
     4
 10
12388.819222
 20
-3255.891142
  0
SEQEND
  8
001
  0
LINE
  8
001
 62
     4
 10
12382.24171
 20
-3263.885891
 11
12392.126832
 21
-3242.139798
  0
CIRCLE
  8
001
 62
     4
 10
12402.472369
 20
-3219.380847
 40
25.0
  0
TEXT
  8
001
 62
     4
 10
12387.472369
 20
-3234.380847
 40
30.0
  1
3
  0
POLYLINE
  8
001
 62
     4
 66
     1
  0
VERTEX
  8
001
 62
     4
 10
11925.343928
 20
-3249.042383
  0
VERTEX
  8
001
 62
     4
 10
11922.544325
 20
-3259.009424
  0
VERTEX
  8
001
 62
     4
 10
11929.952372
 20
-3251.777515
  0
SEQEND
  8
001
  0
LINE
  8
001
 62
     4
 10
11922.544325
 20
-3259.009424
 11
11932.917727
 21
-3241.531196
  0
CIRCLE
  8
001
 62
     4
 10
11945.67729
 20
-3220.032509
 40
25.0
  0
TEXT
  8
001
 62
     4
 10
11930.67729
 20
-3235.032509
 40
30.0
  1
1
 41
1.499999
  0
POLYLINE
  8
001
 62
     4
 66
     1
  0
VERTEX
  8
001
 62
     4
 10
12055.452354
 20
-2595.957281
  0
VERTEX
  8
001
 62
     4
 10
12050.527467
 20
-2605.063607
  0
VERTEX
  8
001
 62
     4
 10
12059.345707
 20
-2599.63974
  0
SEQEND
  8
001
  0
LINE
  8
001
 62
     4
 10
12050.527467
 20
-2605.063607
 11
12132.106455
 21
-2518.812609
  0
CIRCLE
  8
001
 62
     4
 10
12149.285363
 20
-2500.649869
 40
25.0
  0
TEXT
  8
001
 62
     4
 10
12134.285363
 20
-2515.649869
 40
30.0
  1
5
  0
TEXT
  8
001
 10
12141.99895
 20
-2442.257397
 40
20.0
  1
H22.7.28
 41
0.48
  0
LINE
  8
001
 62
     9
 10
11906.99895
 20
-4026.007397
 11
12191.99895
 21
-4026.007397
  0
LINE
  8
001
 62
     9
 10
11906.99895
 20
-4005.382397
 11
12191.99895
 21
-4005.382397
  0
LINE
  8
001
 62
     9
 10
11906.99895
 20
-4046.632397
 11
12191.99895
 21
-4046.632397
  0
TEXT
  8
001
 10
11933.259823
 20
-4005.382397
 40
18.0
  1
SK1050-1
 41
0.685714
  0
POLYLINE
  8
001
 62
     4
 66
     1
  0
VERTEX
  8
001
 62
     4
 10
11909.685525
 20
-4003.253702
  0
VERTEX
  8
001
 62
     4
 10
11928.810525
 20
-4003.253702
  0
VERTEX
  8
001
 62
     4
 10
11919.248025
 20
-3986.690966
  0
VERTEX
  8
001
 62
     4
 10
11909.685525
 20
-4003.253702
  0
SEQEND
  8
001
  0
TEXT
  8
001
 62
     4
 10
11915.423025
 20
-4001.55779
 40
7.65
  1
1
 41
1.499999
  0
POLYLINE
  8
001
 62
     4
 66
     1
  0
VERTEX
  8
001
 62
     4
 10
12052.185525
 20
-4003.253702
  0
VERTEX
  8
001
 62
     4
 10
12071.310525
 20
-4003.253702
  0
VERTEX
  8
001
 62
     4
 10
12061.748025
 20
-3986.690966
  0
VERTEX
  8
001
 62
     4
 10
12052.185525
 20
-4003.253702
  0
SEQEND
  8
001
  0
POLYLINE
  8
001
 62
     4
 66
     1
  0
VERTEX
  8
001
 62
     4
 10
11909.685525
 20
-4023.878702
  0
VERTEX
  8
001
 62
     4
 10
11928.810525
 20
-4023.878702
  0
VERTEX
  8
001
 62
     4
 10
11919.248025
 20
-4007.315966
  0
VERTEX
  8
001
 62
     4
 10
11909.685525
 20
-4023.878702
  0
SEQEND
  8
001
  0
POLYLINE
  8
001
 62
     4
 66
     1
  0
VERTEX
  8
001
 62
     4
 10
12052.185525
 20
-4023.878702
  0
VERTEX
  8
001
 62
     4
 10
12071.310525
 20
-4023.878702
  0
VERTEX
  8
001
 62
     4
 10
12061.748025
 20
-4007.315966
  0
VERTEX
  8
001
 62
     4
 10
12052.185525
 20
-4023.878702
  0
SEQEND
  8
001
  0
POLYLINE
  8
001
 62
     4
 66
     1
  0
VERTEX
  8
001
 62
     4
 10
11909.685525
 20
-4044.503702
  0
VERTEX
  8
001
 62
     4
 10
11928.810525
 20
-4044.503702
  0
VERTEX
  8
001
 62
     4
 10
11919.248025
 20
-4027.940966
  0
VERTEX
  8
001
 62
     4
 10
11909.685525
 20
-4044.503702
  0
SEQEND
  8
001
  0
POLYLINE
  8
001
 62
     4
 66
     1
  0
VERTEX
  8
001
 62
     4
 10
12052.185525
 20
-4044.503702
  0
VERTEX
  8
001
 62
     4
 10
12071.310525
 20
-4044.503702
  0
VERTEX
  8
001
 62
     4
 10
12061.748025
 20
-4027.940966
  0
VERTEX
  8
001
 62
     4
 10
12052.185525
 20
-4044.503702
  0
SEQEND
  8
001
  0
POLYLINE
  8
001
 62
     4
 66
     1
  0
VERTEX
  8
001
 62
     4
 10
11909.685525
 20
-4065.128702
  0
VERTEX
  8
001
 62
     4
 10
11928.810525
 20
-4065.128702
  0
VERTEX
  8
001
 62
     4
 10
11919.248025
 20
-4048.565966
  0
VERTEX
  8
001
 62
     4
 10
11909.685525
 20
-4065.128702
  0
SEQEND
  8
001
  0
TEXT
  8
001
 62
     4
 10
12057.923025
 20
-4001.55779
 40
7.65
  1
2
  0
TEXT
  8
001
 62
     4
 10
11915.423025
 20
-4022.18279
 40
7.65
  1
3
  0
TEXT
  8
001
 62
     4
 10
12057.923025
 20
-4022.18279
 40
7.65
  1
4
  0
TEXT
  8
001
 10
12075.759823
 20
-4005.382397
 40
18.0
  1
SK750
 41
0.62069
  0
TEXT
  8
001
 10
11933.259823
 20
-4026.007397
 40
18.0
  1
SK600
 41
0.642857
  0
TEXT
  8
001
 10
12075.759823
 20
-4026.007397
 40
18.0
  1
SK-800-1N
 41
0.648
  0
TEXT
  8
001
 10
11933.259823
 20
-4046.632397
 40
18.0
  1
SK-1000-1N
 41
0.622642
  0
TEXT
  8
001
 10
12075.759823
 20
-4046.632397
 40
18.0
  1
SK550
 41
0.62069
  0
TEXT
  8
001
 10
11933.259823
 20
-4067.257397
 40
18.0
  1
QM1B57
 41
0.635294
  0
TEXT
  8
001
 62
     4
 10
11915.423025
 20
-4042.80779
 40
7.65
  1
4
  0
TEXT
  8
001
 62
     4
 10
12057.923025
 20
-4042.80779
 40
7.65
  1
5
  0
TEXT
  8
001
 62
     4
 10
11915.423025
 20
-4063.43279
 40
7.65
  1
6
  0
POLYLINE
  8
001
 62
     4
 66
     1
  0
VERTEX
  8
001
 62
     4
 10
10952.241113
 20
-3748.904714
  0
VERTEX
  8
001
 62
     4
 10
10945.071114
 20
-3741.43673
  0
VERTEX
  8
001
 62
     4
 10
10947.546523
 20
-3751.489194
  0
SEQEND
  8
001
  0
LINE
  8
001
 62
     4
 10
10945.071114
 20
-3741.43673
 11
11000.638487
 21
-3842.372345
  0
LINE
  8
001
 62
     4
 10
11000.638487
 20
-3842.372345
 11
11740.638487
 21
-3842.372345
  0
TEXT
  8
001
 62
     4
 10
11020.638487
 20
-3837.372345
 40
20.0
  1
ＳＫ－６００－１、ＳＫ５５０、ＳＫ５７０（ＱＭ１Ｂ５７）は中間押
 41
0.833333
  0
TEXT
  8
001
 62
     4
 10
11660.638487
 20
-3837.372345
 40
20.0
  1
さえなし
 41
0.833333
  0
LINE
  8
001
  6
CENTER
 62
     4
 10
11482.698716
 20
-2943.822865
 11
11482.698716
 21
-3297.256785
  0
LINE
  8
001
  6
CENTER
 62
     4
 10
10940.149782
 20
-2960.302906
 11
10940.149782
 21
-3286.020695
  0
LINE
  8
001
  6
CENTER
 62
     4
 10
10940.149782
 20
-3494.418934
 11
10940.149782
 21
-3772.992145
  0
LINE
  8
001
  6
CENTER
 62
     4
 10
10340.149782
 20
-2725.248336
 11
11540.149782
 21
-2725.248336
  0
LINE
  8
001
  6
CENTER
 62
     4
 10
11540.149782
 20
-2685.248336
 11
10340.149782
 21
-2685.248336
  0
LINE
  8
001
  6
CENTER
 62
     4
 10
10340.149782
 20
-2645.248336
 11
11540.149782
 21
-2645.248336
  0
LINE
  8
001
  6
CENTER
 62
     4
 10
10301.341092
 20
-2625.248336
 11
11571.541946
 21
-2625.248336
  0
LINE
  8
001
  6
CENTER
 62
     4
 10
10340.149782
 20
-2605.248336
 11
11540.149782
 21
-2605.248336
  0
LINE
  8
001
  6
CENTER
 62
     4
 10
10340.149782
 20
-2565.248336
 11
11540.149782
 21
-2565.248336
  0
LINE
  8
001
  6
CENTER
 62
     4
 10
10340.149782
 20
-2525.248336
 11
11540.149782
 21
-2525.248336
  0
LINE
  8
001
  6
CENTER
 62
     4
 10
10940.149782
 20
-2486.130539
 11
10940.149782
 21
-2764.703751
  0
LINE
  8
001
  6
CENTER
 62
     4
 10
10333.399782
 20
-2530.472129
 11
10333.399782
 21
-2540.572467
  0
LINE
  8
001
  6
CENTER
 62
     4
 10
10326.899782
 20
-2530.635038
 11
10326.899782
 21
-2541.061192
  0
LINE
  8
001
  6
CENTER
 62
     4
 10
10330.149782
 20
-2528.339756
 11
10330.149782
 21
-2544.467728
  0
LINE
  8
001
  6
CENTER
 62
     4
 10
10337.028989
 20
-2534.998336
 11
10322.693059
 21
-2534.998336
  0
LINE
  8
001
  6
CENTER
 62
     4
 10
10333.399782
 20
-2695.472129
 11
10333.399782
 21
-2705.572467
  0
LINE
  8
001
  6
CENTER
 62
     4
 10
10326.899782
 20
-2695.635038
 11
10326.899782
 21
-2706.061192
  0
LINE
  8
001
  6
CENTER
 62
     4
 10
10330.149782
 20
-2691.562612
 11
10330.149782
 21
-2709.645468
  0
LINE
  8
001
  6
CENTER
 62
     4
 10
10337.028989
 20
-2699.998336
 11
10322.693059
 21
-2699.998336
  0
LINE
  8
001
  6
CENTER
 62
     4
 10
11540.149782
 20
-3267.009424
 11
10340.149782
 21
-3267.009424
  0
LINE
  8
001
  6
CENTER
 62
     4
 10
11553.399782
 20
-2530.472129
 11
11553.399782
 21
-2540.572467
  0
LINE
  8
001
  6
CENTER
 62
     4
 10
11546.899782
 20
-2530.635038
 11
11546.899782
 21
-2541.061192
  0
LINE
  8
001
  6
CENTER
 62
     4
 10
11550.149782
 20
-2528.339756
 11
11550.149782
 21
-2544.467728
  0
LINE
  8
001
  6
CENTER
 62
     4
 10
11557.028989
 20
-2534.998336
 11
11542.693059
 21
-2534.998336
  0
LINE
  8
001
  6
CENTER
 62
     4
 10
11553.399782
 20
-2695.472129
 11
11553.399782
 21
-2705.572467
  0
LINE
  8
001
  6
CENTER
 62
     4
 10
11546.899782
 20
-2695.635038
 11
11546.899782
 21
-2706.061192
  0
LINE
  8
001
  6
CENTER
 62
     4
 10
11550.149782
 20
-2691.562612
 11
11550.149782
 21
-2709.645468
  0
LINE
  8
001
  6
CENTER
 62
     4
 10
11557.028989
 20
-2699.998336
 11
11542.693059
 21
-2699.998336
  0
LINE
  8
001
  6
CENTER
 62
     4
 10
11540.149782
 20
-3533.53673
 11
10340.149782
 21
-3533.53673
  0
LINE
  8
001
  6
CENTER
 62
     4
 10
10340.149782
 20
-3573.53673
 11
11540.149782
 21
-3573.53673
  0
LINE
  8
001
  6
CENTER
 62
     4
 10
10340.149782
 20
-3613.53673
 11
11540.149782
 21
-3613.53673
  0
LINE
  8
001
  6
CENTER
 62
     4
 10
10303.45255
 20
-3633.53673
 11
11579.704461
 21
-3633.53673
  0
LINE
  8
001
  6
CENTER
 62
     4
 10
11540.149782
 20
-3653.53673
 11
10340.149782
 21
-3653.53673
  0
LINE
  8
001
  6
CENTER
 62
     4
 10
10340.149782
 20
-3693.53673
 11
11540.149782
 21
-3693.53673
  0
LINE
  8
001
  6
CENTER
 62
     4
 10
10340.149782
 20
-3733.53673
 11
11540.149782
 21
-3733.53673
  0
LINE
  8
001
  6
CENTER
 62
     4
 10
11550.149782
 20
-3701.752445
 11
11550.149782
 21
-3716.740008
  0
LINE
  8
001
  6
CENTER
 62
     4
 10
11550.149782
 20
-3699.473153
 11
11550.149782
 21
-3687.911582
  0
LINE
  8
001
  6
CENTER
 62
     4
 10
11556.377675
 20
-3708.53673
 11
11543.996645
 21
-3708.53673
  0
LINE
  8
001
  6
CENTER
 62
     4
 10
11544.878775
 20
-3693.53673
 11
11555.722681
 21
-3693.53673
  0
LINE
  8
001
  6
CENTER
 62
     4
 10
11550.149782
 20
-3728.403725
 11
11550.149782
 21
-3738.276493
  0
LINE
  8
001
  6
CENTER
 62
     4
 10
11544.878778
 20
-3733.53673
 11
11555.560824
 21
-3733.53673
  0
LINE
  8
001
  6
CENTER
 62
     4
 10
11550.149782
 20
-3622.874117
 11
11550.149782
 21
-3644.540919
  0
LINE
  8
001
  6
CENTER
 62
     4
 10
11545.055533
 20
-3556.53673
 11
11555.644581
 21
-3556.53673
  0
LINE
  8
001
  6
CENTER
 62
     4
 10
11550.149782
 20
-3549.326642
 11
11550.149782
 21
-3563.825502
  0
LINE
  8
001
  6
CENTER
 62
     4
 10
10330.149782
 20
-3549.326642
 11
10330.149782
 21
-3563.825502
  0
LINE
  8
001
  6
CENTER
 62
     4
 10
10325.055533
 20
-3556.53673
 11
10335.644581
 21
-3556.53673
  0
LINE
  8
001
  6
CENTER
 62
     4
 10
10330.149782
 20
-3622.874117
 11
10330.149782
 21
-3644.540919
  0
LINE
  8
001
  6
CENTER
 62
     4
 10
10330.149782
 20
-3703.752445
 11
10330.149782
 21
-3718.740008
  0
LINE
  8
001
  6
CENTER
 62
     4
 10
10336.377675
 20
-3710.53673
 11
10323.996645
 21
-3710.53673
  0
LINE
  8
001
  6
CENTER
 62
     4
 10
12038.098654
 20
-2676.968272
 11
12038.098654
 21
-2559.623338
  0
LINE
  8
001
  6
CENTER
 62
     4
 10
12391.273517
 20
-2684.739011
 11
12391.273517
 21
-2559.190054
  0
LINE
  8
001
  6
CENTER
 62
     4
 10
12018.532244
 20
-3298.89638
 11
12018.532244
 21
-2955.35538
  0
LINE
  8
001
  6
CENTER
 62
     4
 10
11943.532244
 20
-3288.861246
 11
11943.532244
 21
-3272.081696
  0
LINE
  8
001
  6
CENTER
 62
     4
 10
12093.532244
 20
-3296.192108
 11
12093.532244
 21
-3247.64544
  0
LINE
  8
001
  6
CENTER
 62
     4
 10
12415.045016
 20
-3282.344833
 11
12415.045016
 21
-3258.071494
  0
LINE
  8
001
  6
CENTER
 62
     4
 10
12405.422077
 20
-3267.009424
 11
12424.563802
 21
-3267.009424
  0
LINE
  8
001
  6
CENTER
 62
     4
 10
12365.422077
 20
-3267.009424
 11
12384.563802
 21
-3267.009424
  0
LINE
  8
001
  6
CENTER
 62
     4
 10
12375.045016
 20
-3282.344833
 11
12375.045016
 21
-3258.071494
  0
LINE
  8
001
  6
CENTER
 62
     4
 10
12445.422077
 20
-3267.009424
 11
12464.563802
 21
-3267.009424
  0
LINE
  8
001
  6
CENTER
 62
     4
 10
12455.045016
 20
-3282.344833
 11
12455.045016
 21
-3258.071494
  0
LINE
  8
001
  6
CENTER
 62
     4
 10
12475.045016
 20
-3298.89638
 11
12475.045016
 21
-2955.35538
  0
LINE
  8
001
  6
CENTER
 62
     4
 10
12485.422077
 20
-3267.009424
 11
12504.563802
 21
-3267.009424
  0
LINE
  8
001
  6
CENTER
 62
     4
 10
12495.045016
 20
-3282.344833
 11
12495.045016
 21
-3258.071494
  0
LINE
  8
001
  6
CENTER
 62
     4
 10
12525.422077
 20
-3267.009424
 11
12544.563802
 21
-3267.009424
  0
LINE
  8
001
  6
CENTER
 62
     4
 10
12535.045016
 20
-3282.344833
 11
12535.045016
 21
-3258.071494
  0
LINE
  8
001
  6
CENTER
 62
     4
 10
12565.422077
 20
-3267.009424
 11
12584.563802
 21
-3267.009424
  0
LINE
  8
001
  6
CENTER
 62
     4
 10
12575.045016
 20
-3282.344833
 11
12575.045016
 21
-3258.071494
  0
LINE
  8
001
  6
CENTER
 62
     4
 10
12586.295016
 20
-3226.509424
 11
12599.108425
 21
-3226.509424
  0
LINE
  8
001
  6
CENTER
 62
     4
 10
12586.295016
 20
-3031.509424
 11
12596.013159
 21
-3031.509424
  0
LINE
  8
001
  6
CENTER
 62
     4
 10
12565.295016
 20
-2985.009424
 11
12565.295016
 21
-2974.108967
  0
LINE
  8
001
  6
CENTER
 62
     4
 10
12400.295016
 20
-2985.009424
 11
12400.295016
 21
-2970.932259
  0
LINE
  8
001
  6
CENTER
 62
     4
 10
11943.782244
 20
-2985.009424
 11
11943.782244
 21
-2970.932259
  0
LINE
  8
001
  6
CENTER
 62
     4
 10
12108.782244
 20
-2985.009424
 11
12108.782244
 21
-2974.108967
  0
LINE
  8
001
  6
CENTER
 62
     4
 10
12144.131184
 20
-3031.509424
 11
12125.233941
 21
-3031.509424
  0
LINE
  8
001
  6
CENTER
 62
     4
 10
12145.434589
 20
-3226.509424
 11
12122.301597
 21
-3226.509424
  0
LINE
  8
001
  6
CENTER
 62
     4
 10
12093.532244
 20
-3296.192108
 11
12093.532244
 21
-3247.64544
  0
LINE
  8
001
  6
CENTER
 62
     4
 10
11943.532244
 20
-3288.861246
 11
11943.532244
 21
-3272.081696
  0
TEXT
  8
002
 10
10199.49895
 20
-2199.757397
 40
20.0
  1
1
 41
1.799999
  0
TEXT
  8
002
 10
10449.49895
 20
-2199.757397
 40
20.0
  1
2
 41
1.2
  0
TEXT
  8
002
 10
10699.49895
 20
-2199.757397
 40
20.0
  1
3
 41
1.2
  0
TEXT
  8
002
 10
10949.49895
 20
-2199.757397
 40
20.0
  1
4
 41
1.2
  0
TEXT
  8
002
 10
11199.49895
 20
-2199.757397
 40
20.0
  1
5
 41
1.2
  0
TEXT
  8
002
 10
11449.49895
 20
-2199.757397
 40
20.0
  1
6
 41
1.2
  0
TEXT
  8
002
 10
11699.49895
 20
-2199.757397
 40
20.0
  1
7
 41
1.2
  0
TEXT
  8
002
 10
11949.49895
 20
-2199.757397
 40
20.0
  1
8
 41
1.2
  0
TEXT
  8
002
 10
12199.49895
 20
-2199.757397
 40
20.0
  1
9
 41
1.2
  0
TEXT
  8
002
 10
12449.49895
 20
-2199.757397
 40
20.0
  1
10
 41
1.6
  0
TEXT
  8
002
 10
12699.49895
 20
-2199.757397
 40
20.0
  1
11
 41
1.799999
  0
TEXT
  8
002
 10
10054.49895
 20
-2329.757397
 40
20.0
  1
A
 41
1.2
  0
TEXT
  8
002
 10
10054.49895
 20
-2579.757397
 40
20.0
  1
B
 41
1.2
  0
TEXT
  8
002
 10
10054.49895
 20
-2829.757397
 40
20.0
  1
C
 41
1.2
  0
TEXT
  8
002
 10
10054.49895
 20
-3079.757397
 40
20.0
  1
D
 41
1.2
  0
TEXT
  8
002
 10
12816.99895
 20
-2329.757397
 40
20.0
  1
A
 41
1.2
  0
TEXT
  8
002
 10
12816.99895
 20
-2579.757397
 40
20.0
  1
B
 41
1.2
  0
TEXT
  8
002
 10
12816.99895
 20
-2829.757397
 40
20.0
  1
C
 41
1.2
  0
TEXT
  8
002
 10
12816.99895
 20
-3079.757397
 40
20.0
  1
D
 41
1.2
  0
TEXT
  8
002
 10
12816.99895
 20
-3329.757397
 40
20.0
  1
E
 41
1.2
  0
TEXT
  8
002
 10
10054.49895
 20
-3579.757397
 40
20.0
  1
F
 41
1.2
  0
TEXT
  8
002
 10
10054.49895
 20
-3829.757397
 40
20.0
  1
G
 41
1.2
  0
TEXT
  8
002
 10
10054.49895
 20
-4079.757397
 40
20.0
  1
H
 41
1.2
  0
TEXT
  8
002
 10
10199.49895
 20
-4174.757397
 40
20.0
  1
1
 41
1.799999
  0
TEXT
  8
002
 10
10449.49895
 20
-4174.757397
 40
20.0
  1
2
 41
1.2
  0
TEXT
  8
002
 10
10699.49895
 20
-4174.757397
 40
20.0
  1
3
 41
1.2
  0
TEXT
  8
002
 10
11199.49895
 20
-4174.757397
 40
20.0
  1
5
 41
1.2
  0
TEXT
  8
002
 10
10949.49895
 20
-4174.757397
 40
20.0
  1
4
 41
1.2
  0
TEXT
  8
002
 10
10074.49895
 20
-4174.757397
 40
20.0
  1
A-2
 41
1.2
  0
TEXT
  8
002
 10
12816.99895
 20
-3579.757397
 40
20.0
  1
F
 41
1.2
  0
TEXT
  8
002
 10
12816.99895
 20
-4079.757397
 40
20.0
  1
H
 41
1.2
  0
TEXT
  8
002
 10
11699.49895
 20
-4174.757397
 40
20.0
  1
7
 41
1.2
  0
TEXT
  8
002
 10
11949.49895
 20
-4174.757397
 40
20.0
  1
8
 41
1.2
  0
TEXT
  8
002
 10
11449.49895
 20
-4174.757397
 40
20.0
  1
6
 41
1.2
  0
TEXT
  8
002
 10
10054.49895
 20
-3329.757397
 40
20.0
  1
E
 41
1.2
  0
TEXT
  8
002
 10
12044.49895
 20
-4174.757397
 40
20.0
  1
A4
 41
0.75
  0
TEXT
  8
002
 10
12831.99895
 20
-3679.757543
 40
20.0
  1
図面を実測しての加工は行わないこと
 50
360.000001
 41
0.833333
 51
1.570796
  7
TATEGAKI
  0
TEXT
  8
002
 10
12831.99895
 20
-4029.757544
 40
20.0
  1
。
 41
0.833333
  0
TEXT
  8
002
 10
12681.99895
 20
-4174.757397
 40
15.0
  1
三角法　単位：ｍｍ
 41
0.833333
  0
TEXT
  8
002
 10
12416.99895
 20
-4174.757397
 40
20.0
  1
株式会社　伸晃
 41
1.041667
  0
TEXT
  8
002
 10
12145.498959
 20
-2232.257397
 40
20.0
  1
年月日
  0
TEXT
  8
002
 10
11896.99895
 20
-2337.257397
 40
20.0
  1
（　）内は参考寸法
 41
0.833333
  0
TEXT
  8
002
 10
11921.99895
 20
-2302.257397
 40
20.0
  1
☆印は重要寸法
 41
0.833333
  0
TEXT
  8
002
 10
11931.99895
 20
-2232.257397
 40
20.0
  1
指定寸法公差
 41
0.833333
  0
TEXT
  8
002
 10
12366.998955
 20
-2232.257397
 40
20.0
  1
設　　変　　内　　容
 41
0.833333
  0
TEXT
  8
002
 10
12729.49895
 20
-2232.257397
 40
20.0
  1
担当
 41
0.833333
  0
TEXT
  8
002
 10
12774.49895
 20
-2232.257397
 40
20.0
  1
検印
 41
0.833333
  0
ENDSEC
  0
EOF
